Несвятые святые (Тихон Шевкунов) [2015, Спектакль-концерт, SATRip] Крокус Сити Холл


 

[Цитировать]

Несвятые святые
Название театра: Крокус Сити Холл
Жанр: концертно-театральная постановка
Год выпуска: 2015
Продолжительность: 01:29:40
Режиссёр: Оксана Шелест
Идея и сценарий: архимандрит Тихон (Шевкунов)
В ролях: Дмитрий Певцов, Дмитрий Дюжев, Борис Плотников, Олег Погудин, Евгения Смольянинова, Алексей Татаринцев, Михаил Миллер.-Описание: Телеверсия спектакля-концерта по книге "Несвятые святые" и другие рассказы архимандрита Тихона (Шевкунова), опубликованной в 2011 году и вызвавшей широкий интерес у российских читателей.
Книга представляет собой сборник реальных рассказов из жизни священнослужителей, происходящих в советский период, и затрагивает широкий круг событий и тем – о патриотических деяниях служителей церкви, о забавных эпизодах из жизни, о трагических событиях истории и пр.
Избранные фрагменты книги читают: Дмитрий Певцов, Дмитрий Дюжев, Борис Плотников.
Принимают участие коллективы: Хор Московского Сретенского монастыря, дирижер Никон Жила; Государственный академический русский народный ансамбль "Россия" имени Л. Зыкиной, дирижер Дмитрий Дмитриенко; Московский молодежный камерный оркестр; ансамбль "Колокола России".
Песни исполняют: Олег Погудин, Евгения Смольянинова, Алексей Татаринцев, Дмитрий Певцов, Михаил Миллер-Качество видео: SATRip
Формат видео: MPEG Transport Stream
Видео: MPEG4 Video (H264) 720x576 (4:3) 25fps [V: h264 high L3.0, yuv420p, 720x576]
Аудио: russian, MP3 44100Hz stereo 128kbps [A: mp3, 44100 Hz, stereo, 128 kb/s]

MediaInfoКод:Общее
Идентификатор : 0 (0x0)
Полное имя : Q:\Несвятые святые.ts
Формат : MPEG-TS
Размер файла : 1,03 Гбайт
Продолжительность : 1 ч. 29 м.
Режим общего битрейта : Переменный
Общий поток : 1653 Кбит/сек
Видео
Идентификатор : 301 (0x12D)
Идентификатор меню : 1 (0x1)
Формат : AVC
Формат/Информация : Advanced Video Codec
Профиль формата : High@L3.0
Параметр CABAC формата : Да
Параметр ReFrames формата : 4 кадра
Идентификатор кодека : 27
Продолжительность : 1 ч. 29 м.
Битрейт : 1372 Кбит/сек
Ширина : 720 пикселей
Высота : 576 пикселей
Соотношение сторон : 4:3
Частота кадров : 25,000 кадров/сек
Стандарт вещания : PAL
Цветовое пространство : YUV
Субдискретизация насыщенности : 4:2:0
Битовая глубина : 8 бит
Тип развёртки : Прогрессивная
Бит/(Пиксели*Кадры) : 0.132
Размер потока : 925 Мбайт (87%)
Библиотека кодирования : x264 core 124
Настройки программы : cabac=1 / ref=1 / deblock=1:-1:-1 / analyse=0x3:0x13 / me=dia / subme=1 / psy=1 / psy_rd=1.00:0.15 / mixed_ref=0 / me_range=16 / chroma_me=1 / trellis=0 / 8x8dct=1 / cqm=0 / deadzone=21,11 / fast_pskip=1 / chroma_qp_offset=0 / threads=4 / sliced_threads=0 / nr=0 / decimate=1 / interlaced=0 / bluray_compat=0 / constrained_intra=0 / bframes=3 / b_pyramid=2 / b_adapt=1 / b_bias=0 / direct=1 / weightb=1 / open_gop=0 / weightp=1 / keyint=60 / keyint_min=6 / scenecut=40 / intra_refresh=0 / rc_lookahead=0 / rc=cbr / mbtree=0 / bitrate=1372 / ratetol=1.0 / qcomp=0.60 / qpmin=10 / qpmax=51 / qpstep=4 / vbv_maxrate=1372 / vbv_bufsize=1500 / nal_hrd=none / ip_ratio=1.40 / pb_ratio=1.30 / aq=1:1.00
Аудио
Идентификатор : 302 (0x12E)
Идентификатор меню : 1 (0x1)
Формат : MPEG Audio
Версия формата : Version 1
Профиль формата : Layer 3
Режим : Joint stereo
Расширение режима : MS Stereo
Идентификатор кодека : 3
Продолжительность : 1 ч. 29 м.
Вид битрейта : Постоянный
Битрейт : 128 Кбит/сек
Каналы : 2 канала
Частота : 44,1 КГц
Метод сжатия : С потерями
Размер потока : 82,1 Мбайт (8%)

Скриншот с названием постановки

Скриншоты




Показать сообщения:    

Текущее время: 05-Дек 23:32

Часовой пояс: UTC + 3


Вы не можете начинать темы
Вы не можете отвечать на сообщения
Вы не можете редактировать свои сообщения
Вы не можете удалять свои сообщения
Вы не можете голосовать в опросах
Вы не можете прикреплять файлы к сообщениям
Вы не можете скачивать файлы