Два гусара (Иван Рассомахин) [1983 г., Литературный театр, телеспектакль, WEB-DLRip]


 

[Цитировать]

Два гусара Год выпуска: 1983.
Жанр: Литературный театр, телеспектакль.
Продолжительность: 01:34:46.
Режиссер: Иван Рассомахин.
В литературном театре играют:
Игорь Дмитриев, Игорь Иванов, Игорь Скляр, Ольга Белявская, Нина Ольхина, Рэм Лебедев, Михаил Матвеев, Майя Тупикова, Александр Романцов, Сергей Арканников, Леонид Тубелевич, Эмманул Шварцберг, Надежда Бурдукова, Сергей Паршин.
Описание:
Телеспектакль по одноименной повести Льва Толстого.
В повести Льва Толстого воспроизводятся два дня из жизни гусаров графов Турбиных, сначала отца, а затем и его выросшего сына. Старший Турбин попадает ненадолго в провинциальный город и успевает за сутки познакомиться с местными дворянами, побывать на балу, соблазнить молодую вдову и спасти от бесчестья проигравшего в карты казённые деньги юного собрата по дивизии - Ильина.
Младший Турбин через двадцать лет случайно оказывается вместе со своим эскадроном в деревне Морозовка, принадлежащей вдове, некогда соблазнённой его отцом. Нрав младшего Турбина иной, чем его давно убитого на дуэли отца. Молодой граф Турбин похож на отца только внешностью, главные же его качества - "любовь к приличию и удобствам жизни", "практический взгляд на вещи". Турбину-сыну вместе с его товарищем корнетом Полозовым предстоит познакомиться с дочерью владелицы Морозовки…

Дополнительная информация:
Страна: СССР .
Выпущено: © Ленинградское телевидение.
Автор сценария: Иван Рассомахин.
Художник: Ольга Воронецкая.
Музыкальное оформление: Марианна Курилович.
Ведущий оператор: Андрей Гусак.
Релиз
Рип lesik689.

Качество: WEB-DLRip
Формат: AVI
Видео: 640x480 (1.33:1), 25 fps, XviD MPEG-4 ~1330 kbps avg, 0.17 bit/pixel
Аудио: 48 kHz, MPEG Layer 3, 2 ch, ~128.00 kbps avg

Отчет MI

Общее
Полное имя : Dva.gusara.1983.XviD.WEB-DLRip.fenixclub.avi
Формат : AVI
Формат/Информация : Audio Video Interleave
Размер файла : 1,35 Гбайт
Продолжительность : 1 ч. 34 м.
Общий поток : 2040 Кбит/сек
Программа кодирования : VirtualDubMod 1.5.10.2 (build 2542/release)
Библиотека кодирования : VirtualDubMod build 2542/release
Видео
Идентификатор : 0
Формат : MPEG-4 Visual
Профиль формата : Advanced Simple@L5
Параметр BVOP формата : 2
Параметр QPel формата : Нет
Параметр GMC формата : Без точки перехода
Параметр матрицы формата : Default (MPEG)
Режим смешивания : Сжатый битовый поток
Идентификатор кодека : XVID
Идентификатор кодека/Подсказка : XviD
Продолжительность : 1 ч. 34 м.
Битрейт : 1902 Кбит/сек
Ширина : 640 пикселей
Высота : 480 пикселей
Соотношение сторон : 5:4
Соотношение сторон в оригинале : 4:3
Частота кадров : 25,000 кадров/сек
Цветовое пространство : YUV
Субдискретизация насыщенности : 4:2:0
Битовая глубина : 8 бит
Тип развёртки : Прогрессивная
Метод сжатия : С потерями
Бит/(Пиксели*Кадры) : 0.248
Размер потока : 1,26 Гбайт (93%)
Библиотека кодирования : XviD 64
Аудио
Идентификатор : 1
Формат : MPEG Audio
Версия формата : Version 1
Профиль формата : Layer 3
Режим : Joint stereo
Расширение режима : MS Stereo
Идентификатор кодека : 55
Идентификатор кодека/Подсказка : MP3
Продолжительность : 1 ч. 34 м.
Вид битрейта : Постоянный
Битрейт : 128 Кбит/сек
Каналы : 2 канала
Частота : 48,0 КГц
Метод сжатия : С потерями
Размер потока : 86,8 Мбайт (6%)
Выравнивание : Разделение по промежуткам
Продолжительность промежутка : 40 мс. (1,00 видеокадр)
Время предзагрузки промежутка : 500 мс.

Скриншоты

Альтернативный хост




Показать сообщения:    

Текущее время: 08-Дек 17:24

Часовой пояс: UTC + 3


Вы не можете начинать темы
Вы не можете отвечать на сообщения
Вы не можете редактировать свои сообщения
Вы не можете удалять свои сообщения
Вы не можете голосовать в опросах
Вы не можете прикреплять файлы к сообщениям
Вы не можете скачивать файлы