Новое и лучшее из старого... Творческий вечер Виктора Шендеровича [2015 г., Творческий вечер, SATRip]


 

[Цитировать]

Новое и лучшее из старого... Творческий вечер Виктора Шендеровича Год выпуска: 2015.
Жанр: Творческий вечер.
Продолжительность: 01:35:52.
Исполнитель: Виктор Шендерович.
Описание:
Короткая ироническая проза и драматургия Виктора Шендеровича завоевали признание публики ещё в конце восьмидесятых. Его "деревня Гадюкино", с легкой руки Геннадия Хазанова, вошла в российский фольклор.
Театр "Черные ходики" – короткие парадоксальные диалоги Шендеровича в авторском исполнении – тоже давно стали его фирменным знаком…
Вечер был посвящён выходу новой книги писателя – двухтомника "Изюм из булки". Это сборник историй, печальных и смешных,
парадоксальных и иронических, автобиографических и слышанных автором от современников. Эти истории, как кусочки мозаики,
складываются в портреты разных людей и эпох.

Дополнительная информация:
Страна: Россия .
Выпущено: © ЗАО "Телекомпания "Совершенно секретно".
Творческий вечер прошел в Московском клубе "Китайский Летчик Джао Да" 12.09.2013 года.

Релиз
Рип lesik689 .
Качество видео:...SATRip
Формат:.................AVI
Видео:..720x544 (1.32:1), 25 fps, XviD MPEG-4 ~1801 kbps avg, 0.18 bit/pixel
Аудио:..48 kHz, MPEG Layer 3, 2 ch, ~128.00 kbps avg

Отчет MI

General
Complete name : Novoye.i.luchsheye.iz.starogo.Tvorchesky.vecher.Viktora.Shenderovicha.2015.XviD.SATRip.fenixclub.avi
Формат : AVI
Формат/Информация : Audio Video Interleave
Размер файла : 1,30 Гбайт
Продолжительность : 1 ч. 35 м.
Общий поток : 1939 Кбит/сек
Программа кодирования : VirtualDubMod 1.5.10.2 (build 2542/release)
Библиотека кодирования : VirtualDubMod build 2542/release
Видео
Идентификатор : 0
Формат : MPEG-4 Visual
Профиль формата : Advanced Simple@L5
Параметр BVOP формата : 2
Параметр QPel формата : Нет
Параметр GMC формата : Без точки перехода
Параметр матрицы формата : Default (MPEG)
Режим смешивания : Сжатый битовый поток
Идентификатор кодека : XVID
Идентификатор кодека/Подсказка : XviD
Продолжительность : 1 ч. 35 м.
Битрейт : 1801 Кбит/сек
Ширина : 720 пикселей
Высота : 544 пикселя
Соотношение сторон : 5:4
Соотношение сторон в оригинале : 4:3
Частота кадров : 25,000 кадров/сек
Цветовое пространство : YUV
Субдискретизация насыщенности : 4:2:0
Битовая глубина : 8 бит
Тип развёртки : Прогрессивная
Метод сжатия : С потерями
Бит/(Пиксели*Кадры) : 0.184
Размер потока : 1,21 Гбайт (93%)
Библиотека кодирования : XviD 64
Аудио
Идентификатор : 1
Формат : MPEG Audio
Версия формата : Version 1
Профиль формата : Layer 3
Режим : Joint stereo
Расширение режима : MS Stereo
Идентификатор кодека : 55
Идентификатор кодека/Подсказка : MP3
Продолжительность : 1 ч. 35 м.
Вид битрейта : Постоянный
Битрейт : 128 Кбит/сек
Каналы : 2 канала
Частота : 48,0 КГц
Метод сжатия : С потерями
Размер потока : 87,8 Мбайт (7%)
Выравнивание : Разделение по промежуткам
Продолжительность промежутка : 40 мс. (1,00 видеокадр)
Время предзагрузки промежутка : 500 мс.

Скриншоты

Альтернативный хост




Показать сообщения:    

Текущее время: 03-Дек 05:27

Часовой пояс: UTC + 3


Вы не можете начинать темы
Вы не можете отвечать на сообщения
Вы не можете редактировать свои сообщения
Вы не можете удалять свои сообщения
Вы не можете голосовать в опросах
Вы не можете прикреплять файлы к сообщениям
Вы не можете скачивать файлы