Танцы с учителем (Юлий Гусман) [2013 г., Спектакль-посвящение, SATRip] Центральный академический театр Российской Армии


 

[Цитировать]

Танцы с учителем (2 части) К 100-летию Владимира Зельдина.
Название театра: Центральный академический театр Российской Армии.
Жанр: Спектакль-посвящение.
Год выпуска: 2013.
Продолжительность: 01:22:06 + 01:02:43 (02:24:49).
Режиссеры: заслуженный деятель искусств России, народный артист Азербайджана Юлий Гусман, заслуженный артист России Борис Поволоцкий, Алексей Шлянин.
Действующие лица и исполнители:
Владимир Михайлович Неделин, великий актер - народный артист СССР Владимир Зельдин,
Ива Григорьевна или Ивушка, жена Неделина - народная артистка России Ольга Богданова,
Тарецкий Михаил он же Альдемаро - заслуженный артист России Андрей Егоров,
Елена Демарина, поначалу Лисена, затем Флорела - Татьяна Морозова,
Фирсов Андрей Петрович, директор театра - народный артист России Александр Дик,
Голикова Надежда Петровна, она же Фелисьяна - Наталья Аристова,
Марина Зубкова, поначалу Флорела, затем Лисена - Алёна Фалалеева,
Алексей Буревич, он же Белардо - Юрий Сазонов,
Фёдор Шляпников, он же Андроньо - Сергей Колесников,
Иван Потехин, он же Корнехо - Константин Денискин,
Константин Сенин, он же Вандалино - Вадим Пожарский,
Валя, помощник режиссера - Ольга Тарасова,
Вася Рыжиков, он же Тевано - заслуженный артист России Сергей Комаров,
Подберезовиков - Александр Богданов,
Офицер - Алексей Горячев.
Артисты Большого театра России:
Альдемаро - Илья Кривов,
Флорела - Юлия Смирнова,
Вандалино - Иван Рюмин,
Фелисьяна - Алина Гусакова,
Альбериго - Александр Сомов.
Описание:
Спектакль "Танцы с учителем" был создан к 95-летию Владимира Зельдина. Создатели постановки не скрывают того, что, хотя главный герой и носит фамилию Неделин, по сути Владимир Михайлович играет самого себя, лишь заключенного в рамки незамысловато сочиненной истории. Истинный романтик сцены, мечтающий возродить легендарный спектакль "Учитель танцев", в котором, как известно, более тысячи раз блистал сам Зельдин, сталкивается с далеко не радужными явлениями современной театральной действительности. А каждый из персонажей, окружающих главного героя, олицетворяет какую-либо из этих реалий в соответствии с законами мемуарно-публицистического жанра. Однако несмотря на то, что единомышленники Мастера поначалу оказываются в меньшинстве, высокое искусство в итоге побеждает мелочные страсти. Сам же Владимир Михайлович не обманывает ожиданий публики, встречающей овациями и страстный романс, и легендарное болеро, и озорную цыганочку. Ведь его танец – это продолжение образа жизни человека, забывающего о возрасте и существующего в стремительном ритме вечного движения. А высокие слова о театре в устах Человека и Артиста, органично соединяющего блестящую жизнь в искусстве с искусством достойно жить, лишаются пафосной нравоучительности, поскольку являются несомненным парафразом его благородно-рыцарского служения Театру.
Дополнительная информация:
Страна: Россия .
Выпущено: © Кинокомпания "Виргос", © Правительство Москвы.
Режиссер-постановщик спектакля: заслуженный деятель искусств России, народный артист Азербайджана Юлий Гусман.
Режиссер: заслуженный артист России Борис Поволоцкий.
Авторы: Исаак Фридберг, Юлий Гусман.
Балетмейстер-постановщик: народный артист СССР и России Владимир Васильев.
Художник-постановщик: Юрий Антизерский.
Композитор: Рубен Затикян.
Художник по костюмам: Ярослава Рафикова.
Художник по свету: Сеогей Мартынов.
Балетмейстер: заслуженная артистка России Юлиана Малхасянц.
Репетитор: Александр Сомов.
Премьера спектакля состоялась в феврале 2010 года.
В спектакле использованы эпизоды из пьесы Лопе де Вега "Учитель танцев" в переводе Татьяны Щепкиной-Куперник, стихотворения Якова Халецкого, Давида Самойлова, Бориса Пастернака, а также фрагменты из музыки Александра Крейна и спектакля ЦАТСА "Учитель танцев" 1946 г.
Режиссер телеверсии: Алексей Шлянин.
Оператор-постановщик: Андрей Колчинский.

О спектакле.
Релиз

Качество: SATRip
Формат: AVI
Видео:..720x400 (1.80:1), 25 fps, XviD MPEG-4 ~1948 kbps avg, 0.27 bit/pixel
Аудио:..44.100 kHz, MPEG Layer 3, 2 ch, ~192.00 kbps avg

Отчет Media Info

1-я часть
Общее
Полное имя : Tancy.s.uchitelem_CATRA.(2-e.serii).2013.XviD.SATRip.fenixclub\Tancy.s.uchitelem_CATRA.(1-ya.chast').2013.avi
Формат : AVI
Формат/Информация : Audio Video Interleave
Размер файла : 1,23 Гбайт
Продолжительность : 1 ч. 22 м.
Общий поток : 2151 Кбит/сек
Программа кодирования : VirtualDubModRus 1.5.10.2 (build 2542/release)
Библиотека кодирования : VirtualDub build 32842/release
Видео
Идентификатор : 0
Формат : MPEG-4 Visual
Профиль формата : Advanced Simple@L5
Параметр BVOP формата : 2
Параметр QPel формата : Нет
Параметр GMC формата : Без точки перехода
Параметр матрицы формата : Default (H.263)
Режим смешивания : Сжатый битовый поток
Идентификатор кодека : XVID
Идентификатор кодека/Подсказка : XviD
Продолжительность : 1 ч. 22 м.
Битрейт : 1949 Кбит/сек
Ширина : 720 пикселей
Высота : 400 пикселей
Соотношение сторон : 16:9
Частота кадров : 25,000 кадров/сек
Цветовое пространство : YUV
Субдискретизация насыщенности : 4:2:0
Битовая глубина : 8 бит
Тип развёртки : Прогрессивная
Метод сжатия : С потерями
Бит/(Пиксели*Кадры) : 0.271
Размер потока : 1,12 Гбайт (91%)
Библиотека кодирования : XviD 73
Аудио
Идентификатор : 1
Формат : MPEG Audio
Версия формата : Version 1
Профиль формата : Layer 3
Режим : Joint stereo
Идентификатор кодека : 55
Идентификатор кодека/Подсказка : MP3
Продолжительность : 1 ч. 22 м.
Вид битрейта : Постоянный
Битрейт : 192 Кбит/сек
Каналы : 2 канала
Частота : 44,1 КГц
Метод сжатия : С потерями
Размер потока : 113 Мбайт (9%)
Выравнивание : Разделение по промежуткам
Продолжительность промежутка : 40 мс. (1,00 видеокадр)
Время предзагрузки промежутка : 500 мс.
Библиотека кодирования : LAME3.98.2
2-я часть
Общее
Полное имя : Tancy.s.uchitelem_CATRA.(2-e.serii).2013.XviD.SATRip.fenixclub\Tancy.s.uchitelem_CATRA.(2-ya.chast').2013.avi
Формат : AVI
Формат/Информация : Audio Video Interleave
Размер файла : 965 Мбайт
Продолжительность : 1 ч. 2 м.
Общий поток : 2151 Кбит/сек
Программа кодирования : VirtualDubModRus 1.5.10.2 (build 2542/release)
Библиотека кодирования : VirtualDub build 32842/release
Видео
Идентификатор : 0
Формат : MPEG-4 Visual
Профиль формата : Advanced Simple@L5
Параметр BVOP формата : 2
Параметр QPel формата : Нет
Параметр GMC формата : Без точки перехода
Параметр матрицы формата : Default (H.263)
Режим смешивания : Сжатый битовый поток
Идентификатор кодека : XVID
Идентификатор кодека/Подсказка : XviD
Продолжительность : 1 ч. 2 м.
Битрейт : 1949 Кбит/сек
Ширина : 720 пикселей
Высота : 400 пикселей
Соотношение сторон : 16:9
Частота кадров : 25,000 кадров/сек
Цветовое пространство : YUV
Субдискретизация насыщенности : 4:2:0
Битовая глубина : 8 бит
Тип развёртки : Прогрессивная
Метод сжатия : С потерями
Бит/(Пиксели*Кадры) : 0.271
Размер потока : 874 Мбайт (91%)
Библиотека кодирования : XviD 73
Аудио
Идентификатор : 1
Формат : MPEG Audio
Версия формата : Version 1
Профиль формата : Layer 3
Режим : Joint stereo
Расширение режима : MS Stereo
Идентификатор кодека : 55
Идентификатор кодека/Подсказка : MP3
Продолжительность : 1 ч. 2 м.
Вид битрейта : Постоянный
Битрейт : 192 Кбит/сек
Каналы : 2 канала
Частота : 44,1 КГц
Метод сжатия : С потерями
Размер потока : 86,1 Мбайт (9%)
Выравнивание : Разделение по промежуткам
Продолжительность промежутка : 40 мс. (1,00 видеокадр)
Время предзагрузки промежутка : 500 мс.
Библиотека кодирования : LAME3.98.2

Скриншот с названием постановки

Скриншоты


Альтернативный хост





Показать сообщения:    

Текущее время: 11-Дек 01:28

Часовой пояс: UTC + 3


Вы не можете начинать темы
Вы не можете отвечать на сообщения
Вы не можете редактировать свои сообщения
Вы не можете удалять свои сообщения
Вы не можете голосовать в опросах
Вы не можете прикреплять файлы к сообщениям
Вы не можете скачивать файлы