Мхатовский вечер "Круг чтения". Церемония открытия Года литературы в России (Олег Табаков, Марина Брусникина) [2015, Россия, Литературный вечер, SATRip] МХТ им. А.П. Чехова


 

[Цитировать]

Мхатовский вечер "Круг чтения". Церемония открытия Года литературы в России
Название театра: МХТ им. А.П. Чехова
Страна: Россия
Жанр: Литературный вечер
Год выпуска: 2015
Продолжительность: 01:16:56
Перевод: Не требуется
Художественный руководитель: Олег Табаков
Режиссёр: Марина Брусникина
Режиссёр телеверсии: Константин Куц
В ролях: Олег Табаков, Станислав Любшин, Нина Гуляева, Ирина Мирошниченко, Евгений Киндинов, Авангард Леонтьев, Николай Чиндяйкин, Дмитрий Брусникин, Игорь Золотовицкий, Константин Хабенский, Михаил Пореченков, Александр Семчев, Анатолий Белый, Игорь Верник, Евгения Добровольская, Дарья Мороз, Ирина Пегова, Максим Матвеев, Андрей Бурковский. В вечере также примут участие режиссеры Виктор Рыжаков, Константин Богомолов и студенты Школы-студии МХАТ.
Описание: В МХТ им. А.П. Чехова уже на протяжении 15 лет существует традиция проведения литературных вечеров "Круг чтения". Актеры театра предлагают зрителям наиболее интересные тексты современных русских авторов. Мхатовский вечер "Круг чтения", приуроченный к открытию Года литературы в России, особенный - в нем пойдет речь о смысле творчества, о литературе и о ее влиянии на развитие человека и общества.
Доп. информация:
Прямая трансляция из МХТ им. А.П. Чехова 28.01.2015г. - http://tvkultura.ru/brand/show/brand_id/59000
Вечер открывается кратким выступлением Президента РФ Путина В.В.
Семпл: http://multi-up.com/1031436
Ссылка на предыдущие и альтернативные раздачи: http://rutracker.org/forum/tracker.php?nm=%D0%9C%D1...1%87%D0%B5%D1%80
Релиз:
Качество видео: SATRip
Формат видео: AVI
Видео: 704x432 (16:9), 25 fps, XviD build 64 ~1226 kbps avg, 0.16 bit/pixel
Аудио: 48 kHz, MPEG Layer 3, 2 ch, ~128.00 kbps avg

MediaInfo

Полное имя : H:\01 РАЗДАЧИ СПЕК\Мхатовский вечер Круг чтения 150128\Мхатовский вечер.Круг чтения.2015.avi
Формат : AVI
Формат/Информация : Audio Video Interleave
Размер файла : 753 Мбайт
Продолжительность : 1 ч. 16 м.
Общий поток : 1368 Кбит/сек
Программа кодирования : Lavf54.63.100
Видео
Идентификатор : 0
Формат : MPEG-4 Visual
Профиль формата : Simple@L3
Параметр BVOP формата : Нет
Параметр QPel формата : Нет
Параметр GMC формата : Без точки перехода
Параметр матрицы формата : Default (H.263)
Идентификатор кодека : XVID
Идентификатор кодека/Подсказка : XviD
Продолжительность : 1 ч. 16 м.
Битрейт : 1227 Кбит/сек
Ширина : 704 пикселя
Высота : 432 пикселя
Соотношение сторон : 16:9
Частота кадров : 25,000 кадров/сек
Цветовое пространство : YUV
Субдискретизация насыщенности : 4:2:0
Битовая глубина : 8 бит
Тип развёртки : Прогрессивная
Метод сжатия : С потерями
Бит/(Пиксели*Кадры) : 0.161
Размер потока : 675 Мбайт (90%)
Библиотека кодирования : XviD 64
Аудио
Идентификатор : 1
Формат : MPEG Audio
Версия формата : Version 1
Профиль формата : Layer 3
Идентификатор кодека : 55
Идентификатор кодека/Подсказка : MP3
Продолжительность : 1 ч. 16 м.
Вид битрейта : Постоянный
Битрейт : 128 Кбит/сек
Каналы : 2 канала
Частота : 48,0 КГц
Метод сжатия : С потерями
Размер потока : 70,4 Мбайт (9%)
Выравнивание : Соединение по промежуткам
Продолжительность промежутка : 24 мс. (0,60 видеокадр)
Время предзагрузки промежутка : 24 мс.
Библиотека кодирования : LAME3.99.5

Скриншот с названием постановки

Скриншоты




Показать сообщения:    

Текущее время: 04-Дек 09:08

Часовой пояс: UTC + 3


Вы не можете начинать темы
Вы не можете отвечать на сообщения
Вы не можете редактировать свои сообщения
Вы не можете удалять свои сообщения
Вы не можете голосовать в опросах
Вы не можете прикреплять файлы к сообщениям
Вы не можете скачивать файлы