Криминальный талант (Ирина Сорокина) [1985, Детектив, WEB-DLRip]


 

[Цитировать]

Криминальный талант
Жанр: Детектив
Год выпуска: 1985
Продолжительность: 01:21:06 + 01:14:07
Режиссёр: Ирина Сорокина
В ролях: Андрей Толубеев, Елена Попова, Михаил Светин, Юрий Демич, Михаил Морозов, Зинаида Шарко, Татьяна Бедова, Валентина Ковель, Сергей Власов, Леонард Борисевич, Андрей Анкудинов, Галина Ниголь, Александр Васильев
Описание: По одноименной повести С.Родионова.
В городе совершается несколько преступлений, схожих по почерку и настолько необычных, что следственная группа предполагает наличие у преступника, точнее, преступницы, своего рода криминального таланта.
Семпл: https://yadi.sk/i/tpb8pKdOeQmPZ
Качество видео: WEB-DLRip
Формат видео: AVI
Видео: 1 серия Xvid 720x552 25fps 2390kbps 2 серия Xvid 720x552 25fps 2113kbps
Аудио: MP3 48000Hz stereo 128kbps

MediaInfo

1 серия
General
Complete name : C:\Users\123\Videos\Криминальный талант\Криминальный талант — 1-я серия .avi
Format : AVI
Format/Info : Audio Video Interleave
File size : 1.43 GiB
Duration : 1h 21mn
Overall bit rate : 2 528 Kbps
Writing application : VirtualDubMod 1.5.10.3 | www.virtualdub-fr.org || (build 2550/release)
Writing library : VirtualDubMod build 2550/release
Video
ID : 0
Format : MPEG-4 Visual
Format profile : Advanced Simple@L5
Format settings, BVOP : Yes
Format settings, QPel : No
Format settings, GMC : No warppoints
Format settings, Matrix : Default (H.263)
Codec ID : XVID
Codec ID/Hint : XviD
Duration : 1h 21mn
Bit rate : 2 390 Kbps
Width : 720 pixels
Height : 552 pixels
Display aspect ratio : 4:3
Frame rate : 25.000 fps
Color space : YUV
Chroma subsampling : 4:2:0
Bit depth : 8 bits
Scan type : Progressive
Compression mode : Lossy
Bits/(Pixel*Frame) : 0.241
Stream size : 1.35 GiB (95%)
Writing library : XviD 1.2.1 (UTC 2008-12-04)
Audio
ID : 1
Format : MPEG Audio
Format version : Version 1
Format profile : Layer 3
Codec ID : 55
Codec ID/Hint : MP3
Duration : 1h 21mn
Bit rate mode : Constant
Bit rate : 128 Kbps
Channel(s) : 2 channels
Sampling rate : 48.0 KHz
Compression mode : Lossy
Stream size : 74.2 MiB (5%)
Alignment : Aligned on interleaves
Interleave, duration : 40 ms (1.00 video frame)
Interleave, preload duration : 504 ms
Writing library : LAME3.99r
Encoding settings : -m s -V 4 -q 2 -lowpass 17 -b 128
2 серия
General
Complete name : C:\Users\123\Videos\Криминальный талант\Криминальный талант — 2-я серия .avi
Format : AVI
Format/Info : Audio Video Interleave
File size : 1.17 GiB
Duration : 1h 14mn
Overall bit rate : 2 251 Kbps
Writing application : VirtualDubMod 1.5.10.3 | www.virtualdub-fr.org || (build 2550/release)
Writing library : VirtualDubMod build 2550/release
Video
ID : 0
Format : MPEG-4 Visual
Format profile : Advanced Simple@L5
Format settings, BVOP : Yes
Format settings, QPel : No
Format settings, GMC : No warppoints
Format settings, Matrix : Default (H.263)
Codec ID : XVID
Codec ID/Hint : XviD
Duration : 1h 14mn
Bit rate : 2 113 Kbps
Width : 720 pixels
Height : 552 pixels
Display aspect ratio : 4:3
Frame rate : 25.000 fps
Color space : YUV
Chroma subsampling : 4:2:0
Bit depth : 8 bits
Scan type : Progressive
Compression mode : Lossy
Bits/(Pixel*Frame) : 0.213
Stream size : 1.09 GiB (94%)
Writing library : XviD 1.2.1 (UTC 2008-12-04)
Audio
ID : 1
Format : MPEG Audio
Format version : Version 1
Format profile : Layer 3
Codec ID : 55
Codec ID/Hint : MP3
Duration : 1h 14mn
Bit rate mode : Constant
Bit rate : 128 Kbps
Channel(s) : 2 channels
Sampling rate : 48.0 KHz
Compression mode : Lossy
Stream size : 67.9 MiB (6%)
Alignment : Aligned on interleaves
Interleave, duration : 40 ms (1.00 video frame)
Interleave, preload duration : 504 ms
Writing library : LAME3.99r
Encoding settings : -m s -V 4 -q 2 -lowpass 17 -b 128

Скриншот с названием постановки

Скриншоты




Показать сообщения:    

Текущее время: 05-Дек 05:31

Часовой пояс: UTC + 3


Вы не можете начинать темы
Вы не можете отвечать на сообщения
Вы не можете редактировать свои сообщения
Вы не можете удалять свои сообщения
Вы не можете голосовать в опросах
Вы не можете прикреплять файлы к сообщениям
Вы не можете скачивать файлы