Каин (Игорь Яцко) [2013 г., мистерия, SATRip] Московский театр "Школа драматического искусства"


 

[Цитировать]

Каин (2 действия) Название театра: Московский театр "Школа драматического искусства".
Год выпуска: 2013.
Жанр: мистерия.
Продолжительность: 01:07:48 + 01:20:57 (02:28:45).
Режиссер-постановщик: Игорь Яцко.
Действующие лица и исполнители:
Адам - Сергей Ганин,
Каин - Кирилл Гребенщиков,
Авель - Олег Малахов,
Ангел Господень - Георгий Фетисов,
Люцифер - Александр Лаптий,
Ева - Гузэль Ширяева,
Ада - Ольга Баландина,
Селла - Елена Михальчук.
А также: Константин Агеев, Роман Андрейкин, Мария Веткалова, Полина Власова, Олег Казанцев, Станислав Рогачев, Павел Рябиков, Рамуне Ходоркайте.
О спектакле:
"Каин" - серьезная, глубокомысленная, философская постановка, освещающая древний библейский сюжет о том, как один из первых людей на земле пребывает в поисках истины.
Версия пьесы Джорджа Гордона Байрона о сыне Адама, бунтаре и богоборце Каине. Байрон в своей мистерии переосмысливает библейскую историю о братоубийстве.
После изгнания из рая Адам с Евой, их детьми и внуками обитают в "местности близ рая", всецело полагаясь на волю господа, пытаясь умилостивить его молитвами и жертвоприношениями. Однако у Каина возникают сомнения, объяснение которых Божьей волей его не устраивает. Он забрасывает вопросами о жизни и смерти явившегося к нему Люцифера, тот поддерживает стремление Каина к познанию, с этой целью они совершают путешествие во времени и пространстве, постигая не только все многообразие жизни, но и грядущие страдания человеческого рода. Нежелание подчиниться установленным законам приводит Каина к ужасному преступлению, карой за которое будет не только вечное изгнание, но и неизгладимая печать на челе.

Дополнительная информация:
Страна: Россия .
Выпущено: Культура.рф.
Автор пьесы: Джордж Гордон Байрон.
Перевод: Иван Бунин.
Художник-постановщик: Игорь Попов
Художник по костюмам: Вадим Андреев
Хореограф: Рамуне Ходоркайте
Хормейстер: Светлана Анистратова
Музыкальный руководитель: Пётр Айду
Художник по свету: Иван Даничев.
Музыканты: Петр Айду, Андрей Емельянов (терменвокс, фортепиано, било, тувинский бубен).
Хор театра под управлением Светланы Анистратовой:
Людмила Белявская, Николай Бабыч, Анна Букатина, Елена Гаврилова, Елена Ершова, Гульнара Закирова, Ирина Ивашкина, Константин Исаев, Ольга Пенина, Инна Мишенкова, Алексей Молочков, Петр Остапенко, Дмитрий Охрименко, Вячеслав Приходкин, Екатерина Серебринская, Дмитрий Шишлянников, Дмитрий Чадов, Анна Ященко.
Премьера спектакля состоялась 24 марта 2012 года.

О спектакле.
Релиз

Качество видео:...SATRip
Формат:.................AVI
Видео:..720x400 (1.80:1), 25 fps, XviD MPEG-4 ~1268 kbps avg, 0.18 bit/pixel
Аудио:..44.100 kHz, MPEG Layer 3, 2 ch, ~128.00 kbps avg

Отчет Media Info

1-е действие
General
Complete name : Kain_Shkola.sovremennoj.p'esy.2013.XviD.SATRip.fenixclub\Kain_Shkola.sovremennoj.p'esy_1.avi
Формат : AVI
Формат/Информация : Audio Video Interleave
Размер файла : 682 Мбайт
Продолжительность : 1 ч. 7 м.
Общий поток : 1407 Кбит/сек
Программа кодирования : VirtualDubModRus 1.5.10.2 (build 2542/release)
Библиотека кодирования : VirtualDub build 32842/release
Видео
Идентификатор : 0
Формат : MPEG-4 Visual
Профиль формата : Advanced Simple@L5
Параметр BVOP формата : 2
Параметр QPel формата : Нет
Параметр GMC формата : Без точки перехода
Параметр матрицы формата : Default (H.263)
Режим смешивания : Сжатый битовый поток
Идентификатор кодека : XVID
Идентификатор кодека/Подсказка : XviD
Продолжительность : 1 ч. 7 м.
Битрейт : 1269 Кбит/сек
Ширина : 720 пикселей
Высота : 400 пикселей
Соотношение сторон : 16:9
Частота кадров : 25,000 кадров/сек
Цветовое пространство : YUV
Субдискретизация насыщенности : 4:2:0
Битовая глубина : 8 бит
Тип развёртки : Прогрессивная
Метод сжатия : С потерями
Бит/(Пиксели*Кадры) : 0.176
Размер потока : 615 Мбайт (90%)
Библиотека кодирования : XviD 73
Аудио
Идентификатор : 1
Формат : MPEG Audio
Версия формата : Version 1
Профиль формата : Layer 3
Режим : Joint stereo
Расширение режима : MS Stereo
Идентификатор кодека : 55
Идентификатор кодека/Подсказка : MP3
Продолжительность : 1 ч. 7 м.
Вид битрейта : Постоянный
Битрейт : 128 Кбит/сек
Каналы : 2 канала
Частота : 44,1 КГц
Метод сжатия : С потерями
Размер потока : 62,1 Мбайт (9%)
Выравнивание : Разделение по промежуткам
Продолжительность промежутка : 40 мс. (1,00 видеокадр)
Время предзагрузки промежутка : 500 мс.
Библиотека кодирования : LAME3.98.2
2-е действие
General
Complete name : Kain_Shkola.sovremennoj.p'esy.2013.XviD.SATRip.fenixclub\Kain_Shkola.sovremennoj.p'esy_2.avi
Формат : AVI
Формат/Информация : Audio Video Interleave
Размер файла : 815 Мбайт
Продолжительность : 1 ч. 20 м.
Общий поток : 1407 Кбит/сек
Программа кодирования : VirtualDubModRus 1.5.10.2 (build 2542/release)
Библиотека кодирования : VirtualDub build 32842/release
Видео
Идентификатор : 0
Формат : MPEG-4 Visual
Профиль формата : Advanced Simple@L5
Параметр BVOP формата : 2
Параметр QPel формата : Нет
Параметр GMC формата : Без точки перехода
Параметр матрицы формата : Default (H.263)
Режим смешивания : Сжатый битовый поток
Идентификатор кодека : XVID
Идентификатор кодека/Подсказка : XviD
Продолжительность : 1 ч. 20 м.
Битрейт : 1269 Кбит/сек
Ширина : 720 пикселей
Высота : 400 пикселей
Соотношение сторон : 16:9
Частота кадров : 25,000 кадров/сек
Цветовое пространство : YUV
Субдискретизация насыщенности : 4:2:0
Битовая глубина : 8 бит
Тип развёртки : Прогрессивная
Метод сжатия : С потерями
Бит/(Пиксели*Кадры) : 0.176
Размер потока : 735 Мбайт (90%)
Библиотека кодирования : XviD 73
Аудио
Идентификатор : 1
Формат : MPEG Audio
Версия формата : Version 1
Профиль формата : Layer 3
Режим : Joint stereo
Расширение режима : MS Stereo
Идентификатор кодека : 55
Идентификатор кодека/Подсказка : MP3
Продолжительность : 1 ч. 20 м.
Вид битрейта : Постоянный
Битрейт : 128 Кбит/сек
Каналы : 2 канала
Частота : 44,1 КГц
Метод сжатия : С потерями
Размер потока : 74,1 Мбайт (9%)
Выравнивание : Разделение по промежуткам
Продолжительность промежутка : 40 мс. (1,00 видеокадр)
Время предзагрузки промежутка : 500 мс.
Библиотека кодирования : LAME3.98.2

Скриншоты


Альтернативный хост





Показать сообщения:    

Текущее время: 08-Дек 19:06

Часовой пояс: UTC + 3


Вы не можете начинать темы
Вы не можете отвечать на сообщения
Вы не можете редактировать свои сообщения
Вы не можете удалять свои сообщения
Вы не можете голосовать в опросах
Вы не можете прикреплять файлы к сообщениям
Вы не можете скачивать файлы