Пиковая дама (Петр Фоменко, Алексей Бураго) [1987, Отечественная классика, TVRip, AVC]


 

[Цитировать]

Пиковая дама
Жанр: Отечественная классика
Год выпуска: 1987
Продолжительность: 01:23:55
Перевод: Не требуется
Язык: Русский
Cубтитры: нет
Оригинальная аудиодорожка: русский
Режиссёр: Петр Фоменко, Алексей Бураго
В ролях: "Тайная недоброжелательность" (Раймонда Климавичюте), Старая графиня (Дарья Белоусова), Графиня в молодости (Ольга Гапеева), Лизавета Ивановна (Алла Плоткина), "Старая барская барыня" (Сусанна Серова), Германн (Алексей Бураго), Томский (Рамил Ибрагимов), Первый гость (Петр Ступин), Второй гость (Евгений Калинцев), Сурин (Роман Кветнер), Нарумов (Владимир Топцов).
Описание: По повести Александра Сергеевича Пушкина. Дипломный спектакль курса, переросший в фильм. Съемки проходили в музее им. Пушкина.
Доп. информация:
Работа подготовлена выпускниками режиссерского факультета ГИТИСа 1987го года. Художественный руководитель курса - Петр Фоменко.
Качество видео: TVRip
Формат видео: MP4
Видео: AVC, 640x480, 29 fps, 660 Kbps
Аудио: Русский, AAC, 44.1 KHz, 126 Kbps

MediaInfo

Общее
Полное имя : D:\Даша Васильева\Пиковая дама (1987) Фоменко\Пиковая дама (1987).mp4
Формат : MPEG-4
Профиль формата : Base Media
Идентификатор кодека : isom
Размер файла : 477 Мбайт
Продолжительность : 1 ч. 23 м.
Общий поток : 794 Кбит/сек
Программа кодирования : Lavf56.19.100
Видео
Идентификатор : 1
Формат : AVC
Формат/Информация : Advanced Video Codec
Профиль формата : Main@L3.0
Параметр CABAC формата : Да
Параметр ReFrames формата : 3 кадра
Идентификатор кодека : avc1
Идентификатор кодека/Информация : Advanced Video Coding
Продолжительность : 1 ч. 23 м.
Битрейт : 660 Кбит/сек
Ширина : 640 пикселей
Высота : 480 пикселей
Соотношение сторон : 4:3
Режим частоты кадров : Постоянный
Частота кадров : 29,970 кадров/сек
Цветовое пространство : YUV
Субдискретизация насыщенности : 4:2:0
Битовая глубина : 8 бит
Тип развёртки : Прогрессивная
Бит/(Пиксели*Кадры) : 0.072
Размер потока : 396 Мбайт (83%)
Аудио
Идентификатор : 2
Формат : AAC
Формат/Информация : Advanced Audio Codec
Профиль формата : LC
Идентификатор кодека : 40
Продолжительность : 1 ч. 23 м.
Вид битрейта : Постоянный
Битрейт : 126 Кбит/сек
Каналы : 2 канала
Расположение каналов : Front: L R
Частота : 44,1 КГц
Метод сжатия : С потерями
Размер потока : 75,4 Мбайт (16%)

Скриншоты





Показать сообщения:    

Текущее время: 04-Дек 11:14

Часовой пояс: UTC + 3


Вы не можете начинать темы
Вы не можете отвечать на сообщения
Вы не можете редактировать свои сообщения
Вы не можете удалять свои сообщения
Вы не можете голосовать в опросах
Вы не можете прикреплять файлы к сообщениям
Вы не можете скачивать файлы