И образ мой предстанет тебе (Василий Давидчук) [1979 г., Литературно-музыкальная композиция, TVRip]


 

[Цитировать]

И образ мой предстанет тебе .
.

Памяти великой певицы - Елены Васильевны Образцовой.
(7 июля 1939, Ленинград - 12 января 2015, Лейпциг)

Год выпуска: 1979.
Жанр: Литературно-музыкальная композиция.
Продолжительность: 01:08:40.
Режиссер: Василий Давидчук.
Исполнители:
Елена Образцова
, Андрей Попов.
Описание:
Когда меня не будет, когда всё, что было мною, рассыплется прахом, — о ты, мой единственный друг, о ты, которую я любил так глубоко и так нежно, ты, которая наверно переживешь меня, — не ходи на мою могилу... Тебе там делать нечего.
Не забывай меня... но и не вспоминай обо мне среди ежедневных забот, удовольствий и нужд... Я не хочу мешать твоей жизни, не хочу затруднять ее спокойное течение.
Но в часы уединения, когда найдет на тебя та застенчивая и беспричинная грусть, столь знакомая добрым сердцам, возьми одну из наших любимых книг и отыщи в ней те страницы, те строки, те слова, от которых, бывало, — помнишь? — у нас обоих разом выступали сладкие и безмолвные слезы.
Прочти, закрой глаза и протяни мне руку... Отсутствующему другу протяни руку твою.
Я не буду в состоянии пожать ее моей рукой — она будет лежать неподвижно под землею... но мне теперь отрадно думать, что, быть может, ты на твоей руке почувствуешь легкое прикосновение.
И образ мой предстанет тебе — и из-под закрытых век твоих глаз польются слезы, подобные тем слезам, которые мы, умиленные Красотою, проливали некогда с тобою вдвоем, о ты, мой единственный друг, о ты, которую я любил так глубоко и так нежно!
Писательское слово, емко и образно доносимое с экрана народным артистом СССР Андреем Поповым, неразрывно связано с музыкой романсов Петра Ильича Чайковского, звучащих в исполнении народной артистки СССР Елены Образцовой.
Сценарий основан на "Стихотворениях в прозе" Ивана Сергеевича Тургенева, отражающих раздумья писателя о глубинных проблемах бытия.
Место съемок - музей-усадьба Ивана Сергеевича Тургенева в Спасском-Лутовиново.
И ее интерьер, и сама природа, и образы, созданные исполнителями ролей, порождают неповторимую атмосферу. Такой синтез жанров был осуществлен на телеэкране впервые. Всё проникнуто трогательной любовью Ивана Сергеевича Тургенева к жизни, к родине.

Дополнительная информация:
Партию фортепиано исполняет Важа Чачава.
Звучат романсы Петра Ильича Чайковского, Александра Абазы на стихи Льва Мея, Даниила Ратгауза, Алексея Толстого, Ивана Тургенева, Алексея Плещеева.
Стихотворения в прозе Ивана Сергеевича Тургенева.
Релиз
Качество видео:...TVRip
Формат:.................AVI
Видео:..688x512 (1.34:1), 25 fps, XviD MPEG-4 ~1288 kbps avg, 0.15 bit/pixel
Аудио:..44.100 kHz, MPEG Layer 3, 2 ch, ~128.00 kbps avg

Отчет MI

Общее
Полное имя : I.obraz.moi.predstanet.tebe.1979.XviD.TVRip.fenixclub.avi
Формат : AVI
Формат/Информация : Audio Video Interleave
Размер файла : 701 Мбайт
Продолжительность : 1 ч. 8 м.
Общий поток : 1427 Кбит/сек
Программа кодирования : VirtualDubModRus 1.5.10.2 (build 2542/release)
Библиотека кодирования : VirtualDub build 32842/release
Видео
Идентификатор : 0
Формат : MPEG-4 Visual
Профиль формата : Advanced Simple@L5
Параметр BVOP формата : 2
Параметр QPel формата : Нет
Параметр GMC формата : Без точки перехода
Параметр матрицы формата : Default (H.263)
Режим смешивания : Сжатый битовый поток
Идентификатор кодека : XVID
Идентификатор кодека/Подсказка : XviD
Продолжительность : 1 ч. 8 м.
Битрейт : 1289 Кбит/сек
Ширина : 688 пикселей
Высота : 512 пикселей
Соотношение сторон : 4:3
Частота кадров : 25,000 кадров/сек
Цветовое пространство : YUV
Субдискретизация насыщенности : 4:2:0
Битовая глубина : 8 бит
Тип развёртки : Прогрессивная
Метод сжатия : С потерями
Бит/(Пиксели*Кадры) : 0.146
Размер потока : 633 Мбайт (90%)
Библиотека кодирования : XviD 1.2.1 (UTC 2008-12-04)
Аудио
Идентификатор : 1
Формат : MPEG Audio
Версия формата : Version 1
Профиль формата : Layer 3
Режим : Joint stereo
Расширение режима : MS Stereo
Идентификатор кодека : 55
Идентификатор кодека/Подсказка : MP3
Продолжительность : 1 ч. 8 м.
Вид битрейта : Постоянный
Битрейт : 128 Кбит/сек
Каналы : 2 канала
Частота : 44,1 КГц
Метод сжатия : С потерями
Размер потока : 62,9 Мбайт (9%)
Выравнивание : Разделение по промежуткам
Продолжительность промежутка : 40 мс. (1,00 видеокадр)
Время предзагрузки промежутка : 500 мс.
Библиотека кодирования : LAME3.98

Скриншоты

Альтернативный хост

Торрент-файл перезалит 30.01.2015 в 20:52. Рип заменен на новый.



Показать сообщения:    

Текущее время: 08-Дек 05:18

Часовой пояс: UTC + 3


Вы не можете начинать темы
Вы не можете отвечать на сообщения
Вы не можете редактировать свои сообщения
Вы не можете удалять свои сообщения
Вы не можете голосовать в опросах
Вы не можете прикреплять файлы к сообщениям
Вы не можете скачивать файлы