Евгений Онегин. Вторая глава. Читает Михаил Ульянов (Иван Рассомахин) [1983 г., Литературные чтения, моноспектакль, TVRip]


 

[Цитировать]

Евгений Онегин. Вторая глава. Читает Михаил Ульянов Год выпуска: 1983.
Жанр: Литературные чтения, моноспектакль.
Продолжительность: 00:50:05.
Режиссер: Иван Рассомахин.
Исполнитель: Михаил Ульянов.
Описание:
В музее-даче А.С. Пушкина в доме Китаева в Царском Селе, где А.С. Пушкин написал "Письмо Онегина к Татьяне", народный артист СССР Михаил Ульянов читает вторую главу романа в стихах "Евгений Онегин".
Дополнительная информация:
Страна: СССР .
Выпущено: Ленинградское телевидение.
Автор: Александр Сергеевич Пушкин.
Композитор: Владислав Успенский.
Художник: Ольга Воронецкая.
Балетмейстер: Кирилл Ласкари.
В спектакле принимают участие артисты Ленинградских театров.
Ведущий оператор: Андрей Гусак.
Первая глава
Релиз
Качество видео:...TVRip
Формат:.................AVI
Видео:..640x480 (1.33:1), 25 fps, XviD MPEG-4 ~1813 kbps avg, 0.24 bit/pixel
Аудио:..44.100 kHz, MPEG Layer 3, 2 ch, ~128.00 kbps avg

Отчет Media Info

General
Complete name : Evgenij.Onegin.2-ya.glava.Chitaet.Mihail.Ul'yanov.1983.XviD.TVRip.fenixclub.avi
Формат : AVI
Формат/Информация : Audio Video Interleave
Размер файла : 699 Мбайт
Продолжительность : 50 м.
Общий поток : 1952 Кбит/сек
Программа кодирования : VirtualDubModRus 1.5.10.2 (build 2542/release)
Библиотека кодирования : VirtualDubMod build 2542/release
Видео
Идентификатор : 0
Формат : MPEG-4 Visual
Профиль формата : Advanced Simple@L5
Параметр BVOP формата : 2
Параметр QPel формата : Нет
Параметр GMC формата : Без точки перехода
Параметр матрицы формата : Default (H.263)
Режим смешивания : Сжатый битовый поток
Идентификатор кодека : XVID
Идентификатор кодека/Подсказка : XviD
Продолжительность : 50 м.
Битрейт : 1814 Кбит/сек
Ширина : 640 пикселей
Высота : 480 пикселей
Соотношение сторон : 4:3
Частота кадров : 25,000 кадров/сек
Цветовое пространство : YUV
Субдискретизация насыщенности : 4:2:0
Битовая глубина : 8 бит
Тип развёртки : Прогрессивная
Метод сжатия : С потерями
Бит/(Пиксели*Кадры) : 0.236
Размер потока : 650 Мбайт (93%)
Библиотека кодирования : XviD 1.2.1 (UTC 2008-12-04)
Аудио
Идентификатор : 1
Формат : MPEG Audio
Версия формата : Version 1
Профиль формата : Layer 3
Режим : Joint stereo
Расширение режима : MS Stereo
Идентификатор кодека : 55
Идентификатор кодека/Подсказка : MP3
Продолжительность : 50 м.
Вид битрейта : Постоянный
Битрейт : 128 Кбит/сек
Каналы : 2 канала
Частота : 44,1 КГц
Метод сжатия : С потерями
Размер потока : 45,9 Мбайт (7%)
Выравнивание : Разделение по промежуткам
Продолжительность промежутка : 40 мс. (1,00 видеокадр)
Время предзагрузки промежутка : 500 мс.

Скриншоты

Альтернативный хост




Показать сообщения:    

Текущее время: 09-Дек 14:42

Часовой пояс: UTC + 3


Вы не можете начинать темы
Вы не можете отвечать на сообщения
Вы не можете редактировать свои сообщения
Вы не можете удалять свои сообщения
Вы не можете голосовать в опросах
Вы не можете прикреплять файлы к сообщениям
Вы не можете скачивать файлы