Мама-кот (Полина Стружкова) [2013 г., сказка, SATRip] Московский академический театр им. Вл. Маяковского


 

[Цитировать]

Мама-кот Название театра: Московский академический театр им. Вл. Маяковского. Филиал на Сретенке.
Год выпуска: 2013.
Жанр: Музыкальный спектакль для всей семьи, сказка.
Продолжительность: 01:32:56.
Режиссеры: Полина Стружков, Сергей Сидоренко.
Действующие лица и исполнители:
Зорбас, черный портовый кот - Алексей Дякин,
Эль Падрино, главный портовый кот - Нияз Гаджиев,
Консильери, серый портовый кот - Игорь Евтушенко,
Книгочей, рыжий портовый кот - Макар Запорожский,
Мореход, корабельный кот - Максим Глебов,
Кенге, чайка, упавшая в нефть - Мария Фортунатова,
Афортунада, белая серебристая чайка - Вера Панфилова,
Маленькая Афортунада – Даша Колотинская,
Редиратти, главный портовый крыс - Алексей Фурсенко,
Треш, наглый крыс - Всеволод Макаров,
Фрик, голодный крыс - Владимир Гуськов.
О спектакле:
Музыкальный спектакль для всей семьи.
Может ли кот высидеть яйцо? А уж тем более научить птенца летать? Конечно же, нет! Но чего не сделаешь, если дал кому-то обещание...
Однажды прекрасным утром кот Зорбас сидел на балконе, любовался морским пейзажем и мечтал о том, как будет жить в свое удовольствие. И тут на его голову в буквальном смысле свалилась чайка. Силы чайки были на исходе, и она взяла обещание с кота, что тот позаботится о ее будущем птенце. Так в жизни кота неожиданно появляется трогательное существо, которое переворачивает их жизнь. В этой истории много забавных и трогательных моментов. Коты учат летать чайку, хотя сами летать не могут, а герои принимают важные жизненные решения на основе философских истин, понять которые могут только дети.

Дополнительная информация:
Страна: Россия .
Выпущено: Московский государственный театр «У Никитских ворот», © Кинокомпания "Дебют" по заказу Правительства Москвы.
Автор пьесы: Луис Сепульведа.
Режиссер-постановщик спектакля: Полина Стружкова.
Автор инсценировки: Александр Шаврин.
Сценография и костюмы: Михаил Краменко.
Композитор: Максим Леонидов.
Аранжировщик и музыкальный руководитель оркестра: Николай Петров.
Музыкальный руководитель: Ольга Шайдуллина.
Хореограф: Лариса Александрова.
Художник по свету: Игорь Капустин.
Аниматор: Инга Коржнева.
Художественный руководитель театра: Миндаугас Карбаускис.
Режиссер видеоверсии: Сергей Сидоренко.
Оператор-постановщик: Владимир Кузаков.

О спектакле.
Релиз

Качество видео:...SATRip
Формат:.................AVI
Видео:..720x400 (1.80:1), 25 fps, XviD MPEG-4 ~2095 kbps avg, 0.29 bit/pixel
Аудио:..44.100 kHz, MPEG Layer 3, 2 ch, ~128.00 kbps avg

Отчет Media Info

General
Complete name : Mama.kot_Moskovskij.teatr.im.Mayakovskogo.2013.SATRip.fenixclub.avi
Формат : AVI
Формат/Информация : Audio Video Interleave
Размер файла : 1,45 Гбайт
Продолжительность : 1 ч. 32 м.
Общий поток : 2233 Кбит/сек
Программа кодирования : VirtualDubModRus 1.5.10.2 (build 2542/release)
Библиотека кодирования : VirtualDub build 32842/release
Видео
Идентификатор : 0
Формат : MPEG-4 Visual
Профиль формата : Advanced Simple@L5
Параметр BVOP формата : 2
Параметр QPel формата : Нет
Параметр GMC формата : Без точки перехода
Параметр матрицы формата : Default (H.263)
Режим смешивания : Сжатый битовый поток
Идентификатор кодека : XVID
Идентификатор кодека/Подсказка : XviD
Продолжительность : 1 ч. 32 м.
Битрейт : 2095 Кбит/сек
Ширина : 720 пикселей
Высота : 400 пикселей
Соотношение сторон : 16:9
Частота кадров : 25,000 кадров/сек
Цветовое пространство : YUV
Субдискретизация насыщенности : 4:2:0
Битовая глубина : 8 бит
Тип развёртки : Прогрессивная
Метод сжатия : С потерями
Бит/(Пиксели*Кадры) : 0.291
Размер потока : 1,36 Гбайт (94%)
Библиотека кодирования : XviD 73
Аудио
Идентификатор : 1
Формат : MPEG Audio
Версия формата : Version 1
Профиль формата : Layer 3
Режим : Joint stereo
Расширение режима : MS Stereo
Идентификатор кодека : 55
Идентификатор кодека/Подсказка : MP3
Продолжительность : 1 ч. 32 м.
Вид битрейта : Постоянный
Битрейт : 128 Кбит/сек
Каналы : 2 канала
Частота : 44,1 КГц
Метод сжатия : С потерями
Задержка видео : 4 мс.
Размер потока : 85,1 Мбайт (6%)
Выравнивание : Разделение по промежуткам
Продолжительность промежутка : 40 мс. (1,00 видеокадр)
Время предзагрузки промежутка : 500 мс.
Библиотека кодирования : LAME3.98.2

Скриншоты


Альтернативный хост





Показать сообщения:    

Текущее время: 08-Дек 21:12

Часовой пояс: UTC + 3


Вы не можете начинать темы
Вы не можете отвечать на сообщения
Вы не можете редактировать свои сообщения
Вы не можете удалять свои сообщения
Вы не можете голосовать в опросах
Вы не можете прикреплять файлы к сообщениям
Вы не можете скачивать файлы