Приключения Рыжика (Ирина Некрасова, Сергей Сидоренко) [2013 г., мюзикл, SATRip] Московский государственный театр «У Никитских ворот»


 

[Цитировать]

Приключения Рыжика Название театра: Московский государственный театр «У Никитских ворот».
Год выпуска: 2013.
Жанр: мюзикл.
Продолжительность: 01:37:48.
Режиссер: Ирина Некрасова, Сергей Сидоренко.
Действующие лица и исполнители:
Рыжик - Эмилия Езапчук,
Полфунта - Александр Чернявский,
Голод - Антон Николаев,
Смерть - Яна Прыжанкова,
Аксинья, приемная мать Рыжика - заслуженная артистка России Ирина Морозова,
Тарас, приемный отец Рыжика, Контролер, Хозяин ночлежки - Иван Машнин,
Дуня - Полина Колесникова,
Спирька - Роман Аптекарь,
Андрей-воин, Дедушка - Антон Степанов,
Ткач, Городовой - Антон Никитин,
Кондуктор - Александр Бычков,
Барыня - Наталья Юченкова-Долгих,
Надя - Екатерина Хатеева,
Сережа - Иван Кобзев,
Гувернантка - Ольга Корикова,
Ватага мальчишек, Школа воров - ТЭП-СТУДИЯ «FLAP» Вячеслава Янковского, «Школа современной хореографии» Антона Николаева.
Описание:
Мюзикл по повести Алексея Свирского "Рыжик" для детей и их родителей.
"Навстречу удивительным приключениям!" - так, наверное, думал каждый из нас в детстве, когда тайком от родителей планировал свой побег из дома. Что думал юный герой спектакля – Санька по прозвищу "Рыжик", убегая из дома? Был ли его побег спровоцирован необоснованной, но мучительной обидой? Или необъятный мир, чарующий своей неизвестностью, давно притягивал его?
Марк Розовский инсценировал знаменитую в свое время повесть Алексея Свирского "Рыжик", придав ей новое особенное звучание. Этот спектакль – музыкальная история-путешествие маленького человека, в которой веселые песни и танцы, невероятные встречи и открытия соединились с глубокой и столь необходимой сегодня мыслью об истинных и непреходящих ценностях.
Яркими красками наполнен спектакль и весь путь маленького Саньки-Рыжика. Но рано или поздно он начинает понимать, что взрослый мир устроен совершенно иначе, чем ему казалось. В нем есть место не только радости и веселью, но и грусти, страданию людей, голоду и нищете. Взрослея с каждой новой встречей, находя новых друзей, Рыжик узнает истинную цену человеческому счастью и жизни, в которой самое главное – это родные и близкие тебе люди. Счастье – это когда у тебя есть дом, в который ты всегда можешь вернуться.

Дополнительная информация:
Страна: Россия .
Выпущено: Московский государственный театр «У Никитских ворот», © Кинокомпания "Дебют" по заказу Правительства Москвы.
Автор пьесы: Алексей Свирский.
Режиссер спектакля: Ирина Некрасова.
Либретто и музыка: народный артист России Марк Розовский.
Текст песен: Юрий Рященцев.
Руководитель постановки: народный артист России Марк Розовский.
Художник-постановщик: заслуженный деятель искусств России Станислав Морозов.
Художник по костюмам: Евгения Шульц
Музыкальный руководитель спектакля: Елена Гончарова
Балетмейстеры: Антон Николаев и Вячеслав Янковский.
Режиссер видеоверсии: Сергей Сидоренко.
Оператор-постановщик: Владимир Кузаков.

О спектакле.
Релиз

Качество видео: SATRip
Формат: AVI
Видео: 720x400 (1.80:1), 25 fps, XviD MPEG-4 ~1995 kbps avg, 0.28 bit/pixel
Аудио: 44.100 kHz, MPEG Layer 3, 2 ch, ~128.00 kbps avg

Отчет MediaInfo

Общее
Полное имя : Priklyucheniya.Ryzhika_Teatr.U.Nikitskih.vorot.2013.XviD.SATRip.fenixclub.avi
Формат : AVI
Формат/Информация : Audio Video Interleave
Размер файла : 1,46 Гбайт
Продолжительность : 1 ч. 37 м.
Общий поток : 2134 Кбит/сек
Программа кодирования : VirtualDubModRus 1.5.10.2 (build 2542/release)
Библиотека кодирования : VirtualDub build 32842/release
Видео
Идентификатор : 0
Формат : MPEG-4 Visual
Профиль формата : Advanced Simple@L5
Параметр BVOP формата : 2
Параметр QPel формата : Нет
Параметр GMC формата : Без точки перехода
Параметр матрицы формата : Default (H.263)
Режим смешивания : Сжатый битовый поток
Идентификатор кодека : XVID
Идентификатор кодека/Подсказка : XviD
Продолжительность : 1 ч. 37 м.
Битрейт : 1996 Кбит/сек
Ширина : 720 пикселей
Высота : 400 пикселей
Соотношение сторон : 16:9
Частота кадров : 25,000 кадров/сек
Цветовое пространство : YUV
Субдискретизация насыщенности : 4:2:0
Битовая глубина : 8 бит
Тип развёртки : Прогрессивная
Метод сжатия : С потерями
Бит/(Пиксели*Кадры) : 0.277
Размер потока : 1,36 Гбайт (94%)
Библиотека кодирования : XviD 1.2.1 (UTC 2008-12-04)
Аудио
Идентификатор : 1
Формат : MPEG Audio
Версия формата : Version 1
Профиль формата : Layer 3
Режим : Joint stereo
Расширение режима : MS Stereo
Идентификатор кодека : 55
Идентификатор кодека/Подсказка : MP3
Продолжительность : 1 ч. 37 м.
Вид битрейта : Постоянный
Битрейт : 128 Кбит/сек
Каналы : 2 канала
Частота : 44,1 КГц
Метод сжатия : С потерями
Размер потока : 89,5 Мбайт (6%)
Выравнивание : Разделение по промежуткам
Продолжительность промежутка : 40 мс. (1,00 видеокадр)
Время предзагрузки промежутка : 500 мс.
Библиотека кодирования : LAME3.98

Скриншоты


Альтернативный хост





Показать сообщения:    

Текущее время: 05-Дек 03:31

Часовой пояс: UTC + 3


Вы не можете начинать темы
Вы не можете отвечать на сообщения
Вы не можете редактировать свои сообщения
Вы не можете удалять свои сообщения
Вы не можете голосовать в опросах
Вы не можете прикреплять файлы к сообщениям
Вы не можете скачивать файлы