Жаворонок (Геннадий Опорков, Нора Райхштейн) [1971 г., драма, телеспектакль, экранизация, WEB-DLRip]


 

[Цитировать]

Жаворонок Год выпуска: 1971.
Жанр: драма, телеспектакль, экранизация.
Продолжительность: 01:43:21.
Режиссеры-постановщики: Геннадий Опорков, Нора Райхштейн.
Действующие лица и исполнители:
Жанна - Лариса Малеванная,
Кошон - заслуженный артист РСФСР Овсей Каган,
Инквизитор - Александр Эстрин,
Граф Варвик - Алексей Розанов,
Брат Ладвеню - Дмитрий Барков,
Фискал - Георгий Анчиц,
Карл - Анатолий Равикович,
Королева Иоланта - Цецилия Файн,
Маленькая Королева - Ирина Балай,
Агнесса - Ирина Терешенкова,
Ла Тремуй - Григорий Турчин,
Отец - Алексей Петренко,
Мать - Зинаида Афанасенко,
Бодрикур - Леонард Борисевич,
Ла Ир - Александр Семенов,
Палач - Владимир Семёнов.
В эпизодах – артисты Санкт-Петербургского академического театра имени Ленсовета.
Описание:
По одноименной пьесе Жана Ануя.
Роль Жанны Д’Арк в разное время сыграли такие актрисы как Ингрид Бергман, Инна Чурикова, Мила Йовович, Лили Собески… Телеспектакль "Жаворонок" Ленинградского телевидения даёт возможность увидеть ещё одну прекрасную актёрскую работу - Ларису Малеванную в роли "Жаворонка" - Жанны Д’Арк.
В 1429 г. Жанна д’Арк, юная крестьянка из Домреми, встала во главе французской армии и за год изменила ход Столетней войны между Англией и Францией. Переломным событием стало снятие осады с Орлеана. Вдохновляемые Жанной, солдаты одержали ряд блистательных побед и отвоевали часть Франции, захваченной англичанами.
Однако многим пришёлся не по нраву стремительный взлёт девушки из народа; став жертвой предательства, Жанна попадает в плен к сторонникам англичан и предстаёт перед церковным судом. В этот тяжёлый для неё час зритель и встречается с героиней пьесы. Вот уже девять месяцев в Руане длится процесс: английский граф Варвик, французский епископ Кошон, Фискал и Инквизитор пытаются во что бы то ни стало опорочить Жанну и заставить её отречься от своих деяний.
Судьи предлагают Жанне рассказать свою историю, и та погружается в воспоминания…

Дополнительная информация:
Страна: СССР .
Выпущено: © Ленинградское телевидение.
Автор: Жан Ануй.
Художник: Сергей Скинтеев.
Художник по костюмам: Р. Варшавская.
Операторы: Михаил Филиппов, А. Пономарёв, Г. Уткин.
Релиз
Рип lesik689.

Качество: WEB-DLRip
Формат: AVI
Видео: 704x528 (1.33:1), 25 fps, XviD MPEG-4 ~1801 kbps avg, 0.19 bit/pixel
Аудио: 48 kHz, MPEG Layer 3, 2 ch, ~128.00 kbps avg

Отчет MI

Общее
Полное имя : Zhavoronok.1971.XviD.WEB-DLRip.fenixclub.avi
Формат : AVI
Формат/Информация : Audio Video Interleave
Размер файла : 1,40 Гбайт
Продолжительность : 1 ч. 43 м.
Общий поток : 1939 Кбит/сек
Программа кодирования : VirtualDubMod 1.5.10.2 (build 2542/release)
Библиотека кодирования : VirtualDubMod build 2542/release
Видео
Идентификатор : 0
Формат : MPEG-4 Visual
Профиль формата : Advanced Simple@L5
Параметр BVOP формата : 2
Параметр QPel формата : Нет
Параметр GMC формата : Без точки перехода
Параметр матрицы формата : Default (MPEG)
Режим смешивания : Сжатый битовый поток
Идентификатор кодека : XVID
Идентификатор кодека/Подсказка : XviD
Продолжительность : 1 ч. 43 м.
Битрейт : 1802 Кбит/сек
Ширина : 704 пикселя
Высота : 528 пикселей
Соотношение сторон : 5:4
Соотношение сторон в оригинале : 4:3
Частота кадров : 25,000 кадров/сек
Цветовое пространство : YUV
Субдискретизация насыщенности : 4:2:0
Битовая глубина : 8 бит
Тип развёртки : Прогрессивная
Метод сжатия : С потерями
Бит/(Пиксели*Кадры) : 0.194
Размер потока : 1,30 Гбайт (93%)
Библиотека кодирования : XviD 64
Аудио
Идентификатор : 1
Формат : MPEG Audio
Версия формата : Version 1
Профиль формата : Layer 3
Режим : Joint stereo
Расширение режима : MS Stereo
Идентификатор кодека : 55
Идентификатор кодека/Подсказка : MP3
Продолжительность : 1 ч. 43 м.
Вид битрейта : Постоянный
Битрейт : 128 Кбит/сек
Каналы : 2 канала
Частота : 48,0 КГц
Метод сжатия : С потерями
Размер потока : 94,6 Мбайт (7%)
Выравнивание : Разделение по промежуткам
Продолжительность промежутка : 40 мс. (1,00 видеокадр)
Время предзагрузки промежутка : 500 мс.

Скриншоты


Альтернативный хост





Показать сообщения:    

Текущее время: 10-Дек 13:51

Часовой пояс: UTC + 3


Вы не можете начинать темы
Вы не можете отвечать на сообщения
Вы не можете редактировать свои сообщения
Вы не можете удалять свои сообщения
Вы не можете голосовать в опросах
Вы не можете прикреплять файлы к сообщениям
Вы не можете скачивать файлы