Вениамин Смехов. Пушкин. Маяковский [2014 г., Литературные чтения, WEВ-DLRip] Концертный зал имени П. И. Чайковского


 

[Цитировать]

Вениамин Смехов. Пушкин. Маяковский Концертный зал имени П. И. Чайковского.
Год выпуска: 2014.
Жанр: Литературные чтения.
Продолжительность: 01:42:04.
Исполнитель: Вениамин Смехов.
В программе: Александр Пушкин, Владимир Маяковский.
Описание:
“... Моя профессия - "актер драмы и кино". Учился в лучшей московской театральной школе - при Театре имени Евгения Вахтангова у прекрасных мастеров и в отличной компании студентов и в хороший отрезок плохой эпохи. Потом - Театр на Таганке.
Почему мне так сильно повезло? Во-первых, Бог избавил меня от чувства зависти к кому бы то ни было.
Во-вторых, Он смолоду подарил мне острое чувство мимолетности и сюрпризности бытия..."
Вениамин Смехов умеет понять, разделить и сыграть возможность человека взглянуть на "жизни мышью беготню" из другого измерения.
Это может быть измерение поэзии - не зря же именно русскую поэзию Вениамин Смехов называет самой большой любовью своей жизни,
и его чтецкие вечера, на которых он читает Маяковского и Пастернака, Самойлова и Слуцкого, десятилетиями собирают зрительный зал.

Дополнительная информация:
Страна: Россия .
Абонемент №47: "Звучащее слово" 30 ноября 2014 года.
Релиз
Рип lesik689.
Качество видео:...WEВ-DLRip
Формат:.................AVI
Видео:..720x400 (1.80:1), 25 fps, XviD MPEG-4 ~1276 kbps avg, 0.18 bit/pixel
Аудио:..48 kHz, MPEG Layer 3, 2 ch, ~192.00 kbps avg

Отчет MI

Общее
Полное имя : Veniamin.Smekhov.Pushkin.Mayafovsky.2014.XviD.WEB-DLRip.fenixclub.avi
Формат : AVI
Формат/Информация : Audio Video Interleave
Размер файла : 1,05 Гбайт
Продолжительность : 1 ч. 42 м.
Общий поток : 1478 Кбит/сек
Программа кодирования : VirtualDubMod 1.5.10.2 (build 2542/release)
Библиотека кодирования : VirtualDubMod build 2542/release
Видео
Идентификатор : 0
Формат : MPEG-4 Visual
Профиль формата : Advanced Simple@L5
Параметр BVOP формата : 2
Параметр QPel формата : Нет
Параметр GMC формата : Без точки перехода
Параметр матрицы формата : Default (MPEG)
Режим смешивания : Сжатый битовый поток
Идентификатор кодека : XVID
Идентификатор кодека/Подсказка : XviD
Продолжительность : 1 ч. 42 м.
Битрейт : 1276 Кбит/сек
Ширина : 720 пикселей
Высота : 400 пикселей
Соотношение сторон : 16:9
Соотношение сторон в оригинале : 16:9
Частота кадров : 25,000 кадров/сек
Цветовое пространство : YUV
Субдискретизация насыщенности : 4:2:0
Битовая глубина : 8 бит
Тип развёртки : Прогрессивная
Метод сжатия : С потерями
Бит/(Пиксели*Кадры) : 0.177
Размер потока : 932 Мбайт (86%)
Библиотека кодирования : XviD 64
Аудио
Идентификатор : 1
Формат : AC-3
Формат/Информация : Audio Coding 3
Расширение режима : CM (complete main)
Параметр Endianness формата : Big
Идентификатор кодека : 2000
Продолжительность : 1 ч. 42 м.
Вид битрейта : Постоянный
Битрейт : 192 Кбит/сек
Каналы : 2 канала
Расположение каналов : Front: L R
Частота : 48,0 КГц
Битовая глубина : 16 бит
Метод сжатия : С потерями
Размер потока : 140 Мбайт (13%)
Выравнивание : Соединение по промежуткам
Продолжительность промежутка : 40 мс. (1,00 видеокадр)
Время предзагрузки промежутка : 512 мс.

Скриншоты

Альтернативный хост




Показать сообщения:    

Текущее время: 04-Дек 15:17

Часовой пояс: UTC + 3


Вы не можете начинать темы
Вы не можете отвечать на сообщения
Вы не можете редактировать свои сообщения
Вы не можете удалять свои сообщения
Вы не можете голосовать в опросах
Вы не можете прикреплять файлы к сообщениям
Вы не можете скачивать файлы