Сергей Юрский. Жест [2014 г., Литературные чтения, WEВ-DLRip] Концертный зал имени П. И. Чайковского


 

[Цитировать]

Сергей Юрский. Жест Концертный зал имени П. И. Чайковского.
Год выпуска: 2014.
Жанр: Литературные чтения.
Продолжительность: 02:02:02.
Исполнитель: народный артист РСФСР Сергей Юрский.
В программе:
Александр Пушкин, Евгений Попов, Всеволод Гаршин, Борис Пастернак, Иосиф Бродский, Евгений Рейн, Сергей Юрский.
Описание:
"В... спектакле, в котором я играю, говорится: "Слова потеряли доверие.
Привлечь внимание можно только громким звуком и ритмом".
Это означает, что публика опошлена.
Почему и насколько - длинный разговор.
Я вижу свою миссию в контрасте с тем абсурдом, который теперь повсюду - в кино, на телевидении, в театре.
Зрители просто разучились слышать простую человеческую речь." (Из интервью, 2006)
Его главная черта – уникальность. За эту уникальность он порой страдал и за эту уникальность он всенародно любим. Актёр, режиссёр, чтец, автор сборников стихотворений, повестей и рассказов. Сергей Юрский – величина, не требующая оценок роста, разве что некоторых уточнений в датах...
55 лет назад он выбрал свой путь, когда впервые вышел на сцену. В 1957, ещё будучи студентом, в Ленинграде, он был принят в труппу Большого драматического театра имени М. Горького и дебютировал в роли Олега в спектакле "В поисках радости" по пьесе В. Розова.
С тех пор он сохраняет верность своему выбору, сделанному однажды. 55 лет непрерывной игры, которой он отдается всецело и бескомпромиссно, с полной отдачей и особой ответственностью. По его собственным словам, театр – это "кровообмен сцены и зала", и это чувствуется во всём, как только он появляется на сцене. У Юрского своя судьба в театре и своя – в кино, в его фильмографии не найти случайных ролей и проходных фильмов.
Особое явление – его концерты, его "театр одного актёра", где он сам себе и режиссёр, и актёр, и автор композиции, когда со сцены входят в зал Чехов, Зощенко, Гоголь, Бабель, Шукшин, а строчки Пушкина, Пастернака, Мандельштама погружают публику в стихию благородного литературного слова.

Дополнительная информация:
Страна: Россия .
Абонемент №46: "Три вечера с Сергеем Юрским", ноябрь 2014 года.
Релиз
Рип lesik689.
Качество видео:...WEВ-DLRip
Формат:.................AVI
Видео:..720x400 (1.80:1), 25 fps, XviD MPEG-4 ~1701 kbps avg, 0.24 bit/pixel
Аудио:..48 kHz, MPEG Layer 3, 2 ch, ~192.00 kbps avg

Отчет MI

Общее
Полное имя : Sergey.Yursky.Zhest.2014.XviD.WEВ-DLRip.fenixclub.avi
Формат : AVI
Формат/Информация : Audio Video Interleave
Размер файла : 1,62 Гбайт
Продолжительность : 2 ч. 2 м.
Общий поток : 1903 Кбит/сек
Программа кодирования : VirtualDubMod 1.5.10.2 (build 2542/release)
Библиотека кодирования : VirtualDubMod build 2542/release
Видео
Идентификатор : 0
Формат : MPEG-4 Visual
Профиль формата : Advanced Simple@L5
Параметр BVOP формата : 2
Параметр QPel формата : Нет
Параметр GMC формата : Без точки перехода
Параметр матрицы формата : Default (MPEG)
Режим смешивания : Сжатый битовый поток
Идентификатор кодека : XVID
Идентификатор кодека/Подсказка : XviD
Продолжительность : 2 ч. 2 м.
Битрейт : 1702 Кбит/сек
Ширина : 720 пикселей
Высота : 400 пикселей
Соотношение сторон : 16:9
Соотношение сторон в оригинале : 16:9
Частота кадров : 25,000 кадров/сек
Цветовое пространство : YUV
Субдискретизация насыщенности : 4:2:0
Битовая глубина : 8 бит
Тип развёртки : Прогрессивная
Метод сжатия : С потерями
Бит/(Пиксели*Кадры) : 0.236
Размер потока : 1,45 Гбайт (89%)
Библиотека кодирования : XviD 64
Аудио
Идентификатор : 1
Формат : AC-3
Формат/Информация : Audio Coding 3
Расширение режима : CM (complete main)
Параметр Endianness формата : Big
Идентификатор кодека : 2000
Продолжительность : 2 ч. 2 м.
Вид битрейта : Постоянный
Битрейт : 192 Кбит/сек
Каналы : 2 канала
Расположение каналов : Front: L R
Частота : 48,0 КГц
Битовая глубина : 16 бит
Метод сжатия : С потерями
Размер потока : 168 Мбайт (10%)
Выравнивание : Соединение по промежуткам
Продолжительность промежутка : 40 мс. (1,00 видеокадр)
Время предзагрузки промежутка : 512 мс.

Скриншоты

Альтернативный хост




Показать сообщения:    

Текущее время: 08-Дек 07:09

Часовой пояс: UTC + 3


Вы не можете начинать темы
Вы не можете отвечать на сообщения
Вы не можете редактировать свои сообщения
Вы не можете удалять свои сообщения
Вы не можете голосовать в опросах
Вы не можете прикреплять файлы к сообщениям
Вы не можете скачивать файлы