Тартюф (Модест Абрамов) [2008, Республика Беларусь, Комедия, DVB-AVC] Белорусский государственный молодежный театр, Минск


 

[Цитировать]

Тартюф
Название театра: Белорусский государственный молодежный театр, Минск
Страна: Республика Беларусь
Жанр: Комедия
Год выпуска: 2008
Продолжительность: 2-а действия 01:30:50
Перевод: Не требуется
Язык: Русский
Режиссёр: Народный артист Республики Северная Осетия-Алания Модест Абрамов
В ролях:
Тартюф - Народный артист Республики Беларусь Сергей Журавель
Оргон - Заслуженный артист Республики Беларусь Александр Шаров
Госпожа Пернель - Раиса Сидорчик
Эльмира - Лилия Арамилева
Дамис - Василий Новик
Марианна - Наталья Дуванова
Валер - Юрий Баранов
Клеант - Евгений Ивкович
Дорина - Анна Лаухина
Лоран (слуга Тартюфа) - Илья Черепко-Самохвалов
Господин Лояль - Иван Щетко
Офицер - Игорь Злотников
Описание: «Тартюф» Жан-Батист Мольер.
Человек зашёл в церковь помолиться, а вышел с новым другом, готовым на всё: распорядиться его деньгами, жениться на его молодой дочери, принять в подарок имение и даже забраться в супружескую постель своего благодетеля. Тартюф есть Тартюф!
Но возможно ли, чтобы такому плуту всё сошло с рук и неужели на него нельзя найти управы?! Эта интригующая история, написанная знаменитым комедиографом ещё во времена классицизма, перешагнула далеко за его рамки. И сегодня, рассказывая со сцены о проказах Тартюфа в талантливейшем исполнении Народного артиста Беларуси Сергея Журавля, мы предлагаем современное прочтение известной пьесы.
Доп. информация:
Художник-постановщик - А. Костюченко
Художник по костюмам - Н. Гурло
Премьера - 2007 г.

Благодарность: исходник для данной раздачи, записан с цифрового наземного канала, т.е. DVB-Т, любезно предоставлен PavelDAS.
За что ему большое спасибо!
Запись потока *.ts с наземного цифрового телеканала "Беларусь 3", ремукс в *.mkv программой VideoReDo.
Семпл: http://rusfolder.com/42744255
Качество видео: DVB
Формат видео: MKV
Видео: AVC (H264), 720x576@785x576 (4:3), анаморф, 25 fps, 2 109 Kbps
Аудио: MP2, 256 kbps, 2 channels, 48 kHz

MediaInfo

GeneralUnique ID : 177241668513444974593168427501614803808 (0x855780F10FF817968719A0D0838C2B60)Complete name : D:\Театр\Тартюф (2008) (БТфМ)\Тартюф (2008).mkvFormat : MatroskaFormat version : Version 2File size : 1.53 GiBDuration : 1h 30mnOverall bit rate : 2 413 KbpsWriting application : Lavf52.64.2Writing library : Lavf52.64.2
VideoID : 1Format : AVCFormat/Info : Advanced Video CodecFormat profile : Main@L3.0Format settings, CABAC : YesFormat settings, ReFrames : 4 framesFormat settings, GOP : M=4, N=24Codec ID : V_MPEG4/ISO/AVCDuration : 1h 30mnBit rate : 2 109 KbpsWidth : 720 pixelsHeight : 576 pixelsDisplay aspect ratio : 4:3Original display aspect rat : 4:3Frame rate mode : ConstantFrame rate : 25.000 fpsStandard : PALColor space : YUVChroma subsampling : 4:2:0Bit depth : 8 bitsScan type : MBAFFScan order : Top Field FirstBits/(Pixel*Frame) : 0.203Stream size : 1.34 GiB (87%)Default : YesForced : NoColor primaries : BT.601 PALTransfer characteristics : BT.470 System B, BT.470 System GMatrix coefficients : BT.601Color range : Limited
AudioID : 2Format : MPEG AudioFormat version : Version 1Format profile : Layer 2Codec ID : A_MPEG/L2Codec ID/Hint : MP2Duration : 1h 30mnBit rate mode : ConstantBit rate : 256 KbpsChannel(s) : 2 channelsSampling rate : 48.0 KHzCompression mode : LossyStream size : 166 MiB (11%)Language : detDefault : YesForced : No



Показать сообщения:    

Текущее время: 08-Дек 01:17

Часовой пояс: UTC + 3


Вы не можете начинать темы
Вы не можете отвечать на сообщения
Вы не можете редактировать свои сообщения
Вы не можете удалять свои сообщения
Вы не можете голосовать в опросах
Вы не можете прикреплять файлы к сообщениям
Вы не можете скачивать файлы