Анна Снегина (Владимир Гостюхин, Сергей Катьер) [2014 г., Беларусь, Музыкально-поэтическая композиция, TVRip] Минский театр-студия киноактера


 

[Цитировать]

Анна Снегина Название театра: Минский театр-студия киноактера.
Год выпуска: 2014.
Страна: Беларусь .
Жанр: Музыкально-поэтическая композиция.
Продолжительность: 01:04:11.
Язык: русский.
Режиссеры: народный артист Республики Беларусь Владимир Гостюхин, Сергей Катьер.
Действующие лица и исполнители:В спектакле заняты:
Народный артист Республики Беларусь Владимир Гостюхин, Лариса Маршалова, вокальная группа "Чистый голос".
О спектакле:
Музыкально-поэтическая композиция по мотивам одноименной поэмы Сергея Есенина.
Владимир Гостюхин читает свою любимую поэму Есенина, и в его чтении есть и задушевная напевность и восхищение прелестью есенинского слова и тот раздольный размах, которыми дышит каждое стихотворение Есенина. Только очень смелому актеру это под силу. Он играет почти за всех - за автора, за старого мельника, за Прона Оглоблина... В роли Анны Снегиной - молодая актриса Лариса Маршалова. В спектакле звучат романсы на стихи Лермонтова и Есенина в исполнении вокальной группы "Чистый голос", известной замечательным акапельным пением и широким диапазоном исполнения произведений.

Дополнительная информация:
Выпущено: © Белтелерадиокомпания.
Автор: Сергей Есенин.
Режиссер-постановщик спектакля: народный артист Республики Беларусь Владимир Гостюхин.
Художник-постановщик: Андрей Меренков.
Художник по костюмам: Юлия Бабаева.
Музыкальное оформление: Алексей Тонких.
Премьера спектакля состоялась 21 декабря 2006 году.
Режиссер телеверсии: Сергей Катьер.
Оператор-постановщик: Сергей Тимощенко.

О спектакле.
Релиз
Спасибо AND01AND за исходный материал.

Качество видео:...TVRip
Формат:.................AVI
Видео:..688x512 (1.34:1), 25 fps, XviD MPEG-4 ~1485 kbps avg, 0.17 bit/pixel
Аудио:..48 kHz, MPEG Layer 3, 2 ch, ~128.00 kbps avg

Отчет MI

Общее
Полное имя : Anna.Snegina_Minskij.teatr.kinoaktera.2014.XviD.SATRip.fenixclub.avi
Формат : AVI
Формат/Информация : Audio Video Interleave
Размер файла : 745 Мбайт
Продолжительность : 1 ч. 4 м.
Общий поток : 1624 Кбит/сек
Программа кодирования : VirtualDubModRus 1.5.10.2 (build 2542/release)
Библиотека кодирования : VirtualDub build 32842/release
Видео
Идентификатор : 0
Формат : MPEG-4 Visual
Профиль формата : Advanced Simple@L5
Параметр BVOP формата : 2
Параметр QPel формата : Нет
Параметр GMC формата : Без точки перехода
Параметр матрицы формата : Default (H.263)
Режим смешивания : Сжатый битовый поток
Идентификатор кодека : XVID
Идентификатор кодека/Подсказка : XviD
Продолжительность : 1 ч. 4 м.
Битрейт : 1486 Кбит/сек
Ширина : 688 пикселей
Высота : 512 пикселей
Соотношение сторон : 4:3
Частота кадров : 25,000 кадров/сек
Цветовое пространство : YUV
Субдискретизация насыщенности : 4:2:0
Битовая глубина : 8 бит
Тип развёртки : Прогрессивная
Метод сжатия : С потерями
Бит/(Пиксели*Кадры) : 0.169
Размер потока : 682 Мбайт (92%)
Библиотека кодирования : XviD 1.2.1 (UTC 2008-12-04)
Аудио
Идентификатор : 1
Формат : MPEG Audio
Версия формата : Version 1
Профиль формата : Layer 3
Режим : Joint stereo
Расширение режима : MS Stereo
Идентификатор кодека : 55
Идентификатор кодека/Подсказка : MP3
Продолжительность : 1 ч. 4 м.
Вид битрейта : Постоянный
Битрейт : 128 Кбит/сек
Каналы : 2 канала
Частота : 48,0 КГц
Метод сжатия : С потерями
Размер потока : 58,8 Мбайт (8%)
Выравнивание : Разделение по промежуткам
Продолжительность промежутка : 40 мс. (1,00 видеокадр)
Время предзагрузки промежутка : 500 мс.

Скриншоты

Альтернативный хост




Показать сообщения:    

Текущее время: 05-Дек 21:39

Часовой пояс: UTC + 3


Вы не можете начинать темы
Вы не можете отвечать на сообщения
Вы не можете редактировать свои сообщения
Вы не можете удалять свои сообщения
Вы не можете голосовать в опросах
Вы не можете прикреплять файлы к сообщениям
Вы не можете скачивать файлы