Банкрот / Свои люди – сочтемся (Модест Абрамов) [2008, Республика Беларусь, Комедия, DVB-AVC] Белорусский государственный молодежный театр, Минск


 

[Цитировать]

Банкрот / Свои люди – сочтемся
Название театра: Белорусский государственный молодежный театр, Минск
Страна: Республика Беларусь
Жанр: Комедия
Год выпуска: 2008
Продолжительность: 2-а действия 01:07:27 + 00:43:30
Перевод: Не требуется
Язык: Русский
Режиссёр: Народный артист Республики Северная Осетия-Алания Модест Абрамов
В ролях:
Большов Самсон Силыч, купец - засл. артист Республики Беларусь Александр Шаров
Аграфена Кондратьевна, его жена - Анна Лаухина
Липочка, их дочь - Наталья Дуванова
Подхалюзин, приказчик - Константин Михаленко
Устинья Наумовна, сваха - Наталья Онищенко
Рисположенский Сысой Псоич, стряпчий - засл. артист Республики Беларусь Сергей Журавель
Фоминишна, ключница - Елена Христич
Тишка, мальчик - Денис Моисейчик
Приказчики - Денис Моисейчик, Юрий Баранов, Сергей Пукита, Илья Черепко-Самохвалов
Описание:
«Банкрот» А. Островского.
Одна из первых пьес гениального драматурга, написанная смешно, с азартом молодости.
Она и сегодня в интерпретации театра необычайно современна. А весёлые русские песни и танцы как нельзя лучше подчёркивают задорную атмосферу спектакля. Поднимая серьёзные проблемы отношений между отцами и детьми, между человеком и капиталом, авторы постановки умело обыгрывают каждый эпизод, а талантливые актёры создают неповторимую палитру образов. Кроме того, неожиданное переплетение комедийных и драматических линий не даст поводов для скуки.
Доп. информация:
Художник-постановщик - Л. Рулёва
Музыкальное оформление - Л. Маслаковой
Балетмейстер - Л. Фадеева
Премьера - 2005 г.

Благодарность: исходник для данной раздачи, записан с цифрового наземного канала, т.е. DVB-Т,
Запись потока *.ts с наземного цифрового телеканала "Беларусь 3", ремукс в *.mkv программой VideoReDo.
Семпл: http://rusfolder.com/42723326
Качество видео: DVB
Формат видео: MKV
Видео 1: AVC (H264), 720x576@785x576 (4:3), анаморф, 25 fps, 2 109 Kbps
Видео 2: AVC (H264), 720x576@785x576 (4:3), анаморф, 25 fps, 2 107 Kbps
Аудио: MP2, 256 kbps, 2 channels, 48 kHz

MediaInfo 1

GeneralUnique ID : 264248101516234517304433151123666879051 (0xC6CC55490A5D825659DFA62C5619C24B)Complete name : D:\Театр\Банкрот (2008) (БТфМ)\Банкрот (2008)\Банкрот_01_2008.mkvFormat : MatroskaFormat version : Version 2File size : 1.14 GiBDuration : 1h 7mnOverall bit rate : 2 413 KbpsWriting application : Lavf52.64.2Writing library : Lavf52.64.2
VideoID : 1Format : AVCFormat/Info : Advanced Video CodecFormat profile : Main@L3.0Format settings, CABAC : YesFormat settings, ReFrames : 4 framesFormat settings, GOP : M=4, N=24Codec ID : V_MPEG4/ISO/AVCDuration : 1h 7mnBit rate : 2 109 KbpsWidth : 720 pixelsHeight : 576 pixelsDisplay aspect ratio : 4:3Original display aspect ratio : 4:3Frame rate mode : ConstantFrame rate : 25.000 fpsStandard : PALColor space : YUVChroma subsampling : 4:2:0Bit depth : 8 bitsScan type : MBAFFScan order : Top Field FirstBits/(Pixel*Frame) : 0.203Stream size : 1 017 MiB (87%)Default : YesForced : NoColor primaries : BT.601 PALTransfer characteristics : BT.470 System B, BT.470 System GMatrix coefficients : BT.601Color range : Limited
AudioID : 2Format : MPEG AudioFormat version : Version 1Format profile : Layer 2Codec ID : A_MPEG/L2Codec ID/Hint : MP2Duration : 1h 7mnBit rate mode : ConstantBit rate : 256 KbpsChannel(s) : 2 channelsSampling rate : 48.0 KHzCompression mode : LossyStream size : 123 MiB (11%)Language : RussianDefault : YesForced : No

MediaInfo 2

GeneralUnique ID : 268288168099414065869699274503855279405 (0xC9D66BF25A12FC535D33B31BA5DC0D2D)Complete name : D:\Театр\Банкрот (2008) (БТфМ)\Банкрот (2008)\Банкрот_02_2008.mkvFormat : MatroskaFormat version : Version 2File size : 750 MiBDuration : 43mn 29sOverall bit rate : 2 411 KbpsWriting application : Lavf52.64.2Writing library : Lavf52.64.2
VideoID : 1Format : AVCFormat/Info : Advanced Video CodecFormat profile : Main@L3.0Format settings, CABAC : YesFormat settings, ReFrames : 4 framesFormat settings, GOP : M=4, N=24Codec ID : V_MPEG4/ISO/AVCDuration : 43mn 29sBit rate : 2 107 KbpsWidth : 720 pixelsHeight : 576 pixelsDisplay aspect ratio : 4:3Original display aspect ratio : 4:3Frame rate mode : ConstantFrame rate : 25.000 fpsStandard : PALColor space : YUVChroma subsampling : 4:2:0Bit depth : 8 bitsScan type : MBAFFScan order : Top Field FirstBits/(Pixel*Frame) : 0.203Stream size : 656 MiB (87%)Default : YesForced : NoColor primaries : BT.601 PALTransfer characteristics : BT.470 System B, BT.470 System GMatrix coefficients : BT.601Color range : Limited
AudioID : 2Format : MPEG AudioFormat version : Version 1Format profile : Layer 2Codec ID : A_MPEG/L2Codec ID/Hint : MP2Duration : 43mn 29sBit rate mode : ConstantBit rate : 256 KbpsChannel(s) : 2 channelsSampling rate : 48.0 KHzCompression mode : LossyStream size : 79.6 MiB (11%)Language : RussianDefault : YesForced : No



Показать сообщения:    

Текущее время: 08-Дек 14:59

Часовой пояс: UTC + 3


Вы не можете начинать темы
Вы не можете отвечать на сообщения
Вы не можете редактировать свои сообщения
Вы не можете удалять свои сообщения
Вы не можете голосовать в опросах
Вы не можете прикреплять файлы к сообщениям
Вы не можете скачивать файлы