Поцелуй меня, Генри! / Когда лошадь теряет сознание (Владимир Короткевич) [1999, Республика Беларусь, Драма, DVB-AVC] Гомельский областной драматический театр


 

[Цитировать]

Поцелуй меня, Генри! / Когда лошадь теряет сознание
Название театра: Гомельский областной драматический театр
Страна: Республика Беларусь
Жанр: Драма
Год выпуска: 1999
Продолжительность: 2-а действия 00:53:20 + 00:51:28
Перевод: Не требуется
Язык: Русский
Режиссёр: Владимир Короткевич
В ролях:
Генри-Джеймс Честерфилд - нар. арт. Республики Беларусь Юрий Шефер
Фелисити Честерфилд - Надежда Беляева
Сомс - Александр Лавринович
Присцилла Честерфилд - Наталья Деберина
Юбер Дарсей - засл. арт. Республики Беларусь Юрий Фейгин
Бертран Честерфилд - Сергей Лагутенко
Коралия Вернэ - Татьяна Змитюро
Хэмфри Дартон - Юрий Мартинович
Описание: Спектакль по пьесе Франсуазы Саган "Когда лошадь теряет сознание".
Перед зрителем разворачивается картина семейных отношений Честерфилдов: властная мать семейства Фелисити, потерявший интерес к жизни отец Генри, вырвавшаяся на волю и потерявшая от этого способность здраво мыслить дочь Присцилла и глубоко ушедший в философию и аскетизм сын Бертран. Зритель наблюдает, как безумные желания перемен озаряют людей, вытягивая их к кардинальных изменениям, и как сложно снова вернуться к привычной жизни, снова существовать, как загнанная лошадь, таща за собой свой груз переживаний...
Доп. информация:

Благодарность: исходник для данной раздачи, записан с цифрового наземного канала, т.е. DVB-Т,
Запись потока *.ts с наземного цифрового телеканала "Беларусь 3", ремукс в *.mkv программой VideoReDo.
Семпл: http://rusfolder.com/42719545
Качество видео: DVB
Формат видео: MKV
Видео 1: AVC (H264), 720x576@785x576 (4:3), анаморф, 25 fps, 2 108 Kbps
Видео 2: AVC (H264), 720x576@785x576 (4:3), анаморф, 25 fps, 2 108 Kbps
Аудио: MP2, 256 kbps, 2 channels, 48 kHz

MediaInfo 1

GeneralUnique ID : 145069827248961526350240458500658069131 (0x6D236EB3E6E5E6A72BEDD672A36A7E8B)Complete name : D:\Театр\Поцелуй меня, Генри! (1999)\Поцелуй меня, Генри!(1999)\Поцелуй меня, Генри!_01_1999.mkvFormat : MatroskaFormat version : Version 2File size : 920 MiBDuration : 53mn 19sOverall bit rate : 2 411 KbpsWriting application : Lavf52.64.2Writing library : Lavf52.64.2
VideoID : 1Format : AVCFormat/Info : Advanced Video CodecFormat profile : Main@L3.0Format settings, CABAC : YesFormat settings, ReFrames : 4 framesFormat settings, GOP : M=4, N=24Codec ID : V_MPEG4/ISO/AVCDuration : 53mn 19sBit rate : 2 107 KbpsWidth : 720 pixelsHeight : 576 pixelsDisplay aspect ratio : 4:3Original display aspect ratio : 4:3Frame rate mode : ConstantFrame rate : 25.000 fpsStandard : PALColor space : YUVChroma subsampling : 4:2:0Bit depth : 8 bitsScan type : MBAFFScan order : Top Field FirstBits/(Pixel*Frame) : 0.203Stream size : 804 MiB (87%)Default : YesForced : NoColor primaries : BT.601 PALTransfer characteristics : BT.470 System B, BT.470 System GMatrix coefficients : BT.601Color range : Limited
AudioID : 2Format : MPEG AudioFormat version : Version 1Format profile : Layer 2Codec ID : A_MPEG/L2Codec ID/Hint : MP2Duration : 53mn 19sBit rate mode : ConstantBit rate : 256 KbpsChannel(s) : 2 channelsSampling rate : 48.0 KHzCompression mode : LossyStream size : 97.7 MiB (11%)Language : RussianDefault : YesForced : No

MediaInfo 2

GeneralUnique ID : 212918498309741127230396954004356348248 (0xA02E9C7509EA7407A0289445B80C3958)Complete name : D:\Театр\Поцелуй меня, Генри! (1999)\Поцелуй меня, Генри!(1999)\Поцелуй меня, Генри!_02_1999.mkvFormat : MatroskaFormat version : Version 2File size : 888 MiBDuration : 51mn 28sOverall bit rate : 2 412 KbpsWriting application : Lavf52.64.2Writing library : Lavf52.64.2
VideoID : 1Format : AVCFormat/Info : Advanced Video CodecFormat profile : Main@L3.0Format settings, CABAC : YesFormat settings, ReFrames : 4 framesFormat settings, GOP : M=4, N=24Codec ID : V_MPEG4/ISO/AVCDuration : 51mn 28sBit rate : 2 108 KbpsWidth : 720 pixelsHeight : 576 pixelsDisplay aspect ratio : 4:3Original display aspect ratio : 4:3Frame rate mode : ConstantFrame rate : 25.000 fpsStandard : PALColor space : YUVChroma subsampling : 4:2:0Bit depth : 8 bitsScan type : MBAFFScan order : Top Field FirstBits/(Pixel*Frame) : 0.203Stream size : 776 MiB (87%)Default : YesForced : NoColor primaries : BT.601 PALTransfer characteristics : BT.470 System B, BT.470 System GMatrix coefficients : BT.601Color range : Limited
AudioID : 2Format : MPEG AudioFormat version : Version 1Format profile : Layer 2Codec ID : A_MPEG/L2Codec ID/Hint : MP2Duration : 51mn 28sBit rate mode : ConstantBit rate : 256 KbpsChannel(s) : 2 channelsSampling rate : 48.0 KHzCompression mode : LossyStream size : 94.3 MiB (11%)Language : RussianDefault : YesForced : No



Показать сообщения:    

Текущее время: 10-Дек 13:49

Часовой пояс: UTC + 3


Вы не можете начинать темы
Вы не можете отвечать на сообщения
Вы не можете редактировать свои сообщения
Вы не можете удалять свои сообщения
Вы не можете голосовать в опросах
Вы не можете прикреплять файлы к сообщениям
Вы не можете скачивать файлы