Юбилейный вечер театра Сатиры. Грустно, но смешно (Александр Ширвиндт, Юрий Васильев) [2015 г., пародия на юбилей, HDTVRip] Московский академический театр Сатиры


 

[Цитировать]

Юбилейный вечер театра Сатиры. Грустно, но смешно Название театра: Московский академический театр Сатиры.
Год выпуска: 2015.
Жанр: пародия на юбилей.
Продолжительность: 00:50:22.
Постановка: Александр Ширвиндт, Юрий Васильев.
Участвуют:
Вера Васильева, Александр Ширвиндт, Михаил Державин, Фёдор Добронравов, Юрий Васильев, Светлана Рябова, Зоя Зелинская, Наталья Защипина, Алена Яковлева, Наталья Селезнева, Олег Вавилов, Игорь Лагутин, Марина Ильина, Юрий Нифонтов, Елена Подкаминская, Игорь Угольников, Вероника Агапова, Сергей Бескакотов, Антон Буглак, Майя Горбань, Максим Демченко, Мария Козакова, Арина Кирсанова, Любовь Козий, Сергей Колповский, Семен Лопатин, Марина Маняхина, Павел Мисаилов, Карина Мишулина, Евгения Свиридова, Елена Синилова, Евгений Толоконников, Евгений Хазов, Екатерина Хлыстова.
Описание:
Знаменитому Московскому академическому театру Сатиры в минувшем году исполнилось 90 лет!
Круглую дату труппа во главе с художественным руководителем, народным артистом России Александром Ширвиндтом отметила премьерой спектакля "Грустно, но смешно".

Дополнительная информация:
Страна: Россия .
Выпущено: © ВГТРК.
Авторы: Сергей Плотов, Вадим Жук, Александр Ширвиндт.
Кинолетопись: Аркадий Инин, Андрей Вансович.
Сценография: Георгий Юнгвальд-Хилькевич.
Музыкальный руководитель и дирижер: Андрей Рейн.
Балетмейстер: Арсений Хорунжий.
Концертмейстеры: Инна Москвина, Галина Перова.
Прозвучали песни: Исаака Дунаевского, Никиты Богословского, Алексея Колгана, Бориса Мокроусова, Александра Колкера, Андрея Семёнова, Яна Френкеля, Давида Тухманова, Николая Андреева, Геннадия Гладкова, Инны Москвиной, Юрия Энтина, Игоря Шаферана, Григория Горина, Аркадия Арканова, Алексея Фатьянова, Льва Славина.
Стихи: Давида Самойлова, Геннадия Шпаликова, Сергея Плотова.
Использованы сцены из спектаклей: "Андрюша", "Триумф на Триумфальной", "Орнифль", "Дураки".

О спектакле.
Релиз

Качество видео:...HDTVRip
Формат:.................AVI
Видео:..720x400 (1.80:1), 25 fps, XviD MPEG-4 ~1802 kbps avg, 0.25 bit/pixel
Аудио:..48 kHz, MPEG Layer 3, 2 ch, ~128.00 kbps avg

Отчет MI

General
Complete name : Yubileinyi.vecher.teatra.Satiry.2015.XviD.HDTVRip.fenixclub.avi
Формат : AVI
Формат/Информация : Audio Video Interleave
Размер файла : 699 Мбайт
Продолжительность : 50 м.
Общий поток : 1940 Кбит/сек
Видео
Идентификатор : 0
Формат : MPEG-4 Visual
Профиль формата : Advanced Simple@L5
Параметр BVOP формата : 2
Параметр QPel формата : Нет
Параметр GMC формата : Без точки перехода
Параметр матрицы формата : Default (H.263)
Идентификатор кодека : XVID
Идентификатор кодека/Подсказка : XviD
Продолжительность : 50 м.
Битрейт : 1802 Кбит/сек
Ширина : 720 пикселей
Высота : 400 пикселей
Соотношение сторон : 16:9
Частота кадров : 25,000 кадров/сек
Цветовое пространство : YUV
Субдискретизация насыщенности : 4:2:0
Битовая глубина : 8 бит
Тип развёртки : Прогрессивная
Метод сжатия : С потерями
Бит/(Пиксели*Кадры) : 0.250
Размер потока : 650 Мбайт (93%)
Библиотека кодирования : XviD 1.2.1 (UTC 2008-12-04)
Аудио
Идентификатор : 1
Формат : MPEG Audio
Версия формата : Version 1
Профиль формата : Layer 3
Режим : Joint stereo
Расширение режима : MS Stereo
Идентификатор кодека : 55
Идентификатор кодека/Подсказка : MP3
Продолжительность : 50 м.
Вид битрейта : Постоянный
Битрейт : 128 Кбит/сек
Каналы : 2 канала
Частота : 48,0 КГц
Метод сжатия : С потерями
Размер потока : 46,1 Мбайт (7%)
Выравнивание : Соединение по промежуткам
Продолжительность промежутка : 40 мс. (1,00 видеокадр)
Библиотека кодирования : LAME3.98

Скриншоты


Альтернативный хост





Показать сообщения:    

Текущее время: 04-Дек 06:55

Часовой пояс: UTC + 3


Вы не можете начинать темы
Вы не можете отвечать на сообщения
Вы не можете редактировать свои сообщения
Вы не можете удалять свои сообщения
Вы не можете голосовать в опросах
Вы не можете прикреплять файлы к сообщениям
Вы не можете скачивать файлы