Солдат и ведьма (Владимир Штейн) [1970, сказка, SATRip] Центральный театр кукол


 

[Цитировать]

Солдат и ведьма
Центральный театр кукол
Жанр: сказка
Год выпуска: 1970
Продолжительность: 01:09:58
Режиссёр: Владимир Штейн
В ролях:
Солдат - Виктор Рябов
Ведьма - Ирина Панярская
Король - Леонид Бунин
Королева - Екатерина Деревщикова
Принцесса - Евгения Рубановская
Генерал - Игорь Кудрявцев
Ганс - Светлана Шеповалова
1-я собака - Вера Жукова
2-я собака - Алексей Ярцев
3-я собака - Алла Сироткина
Кошка - Ирина Пескова
Описание: По сказке "Огниво" Ганса Христиана Андерсена.
Шёл солдат по дороге. Позади – годы службы, впереди – неизвестность. Повстречал солдат ведьму, которая попросила его достать из дупла старого дерева для себя огниво, а для самого солдата столько денег, сколько унесёт. Но это только начало увлекательной истории. Солдат и ведьму перехитрит, успеет и разбогатеть, и разориться, и поцеловать принцессу, и попасть в темницу. Как и все сказки Андерсена, эта заставляет задуматься о том, что действительно имеет ценность.
Вступительное слово: Сергей Образцов
Релиз:
Семпл: https://www.mediafire.com/?b6mj9c7tg0j757d
Качество видео: SATRip
Формат видео: AVI
Видео: 720x544 (1.32:1), 25 fps, XviD MPEG-4 ~1351 kbps avg, 0.14 bit/pixel
Аудио: 48 kHz, MPEG Layer 3, 2 ch, ~128.00 kbps avg

MediaInfo

Полное имя : Soldat.i.ved'ma.1970.SATRip.fenixclub.avi
Формат : AVI
Формат/Информация : Audio Video Interleave
Размер файла : 746 Мбайт
Продолжительность : 1 ч. 9 м.
Общий поток : 1490 Кбит/сек
Программа кодирования : VirtualDubModRus 1.5.10.2 (build 2542/release)
Библиотека кодирования : VirtualDub build 32842/release
Видео
Идентификатор : 0
Формат : MPEG-4 Visual
Профиль формата : Advanced Simple@L5
Параметр BVOP формата : 2
Параметр QPel формата : Нет
Параметр GMC формата : Без точки перехода
Параметр матрицы формата : Default (H.263)
Режим смешивания : Сжатый битовый поток
Идентификатор кодека : XVID
Идентификатор кодека/Подсказка : XviD
Продолжительность : 1 ч. 9 м.
Битрейт : 1352 Кбит/сек
Ширина : 720 пикселей
Высота : 544 пикселя
Соотношение сторон : 4:3
Частота кадров : 25,000 кадров/сек
Цветовое пространство : YUV
Субдискретизация насыщенности : 4:2:0
Битовая глубина : 8 бит
Тип развёртки : Прогрессивная
Метод сжатия : С потерями
Бит/(Пиксели*Кадры) : 0.138
Размер потока : 677 Мбайт (91%)
Библиотека кодирования : XviD 1.2.1 (UTC 2008-12-04)
Аудио
Идентификатор : 1
Формат : MPEG Audio
Версия формата : Version 1
Профиль формата : Layer 3
Режим : Joint stereo
Расширение режима : MS Stereo
Идентификатор кодека : 55
Идентификатор кодека/Подсказка : MP3
Продолжительность : 1 ч. 9 м.
Вид битрейта : Постоянный
Битрейт : 128 Кбит/сек
Каналы : 2 канала
Частота : 48,0 КГц
Метод сжатия : С потерями
Размер потока : 64,1 Мбайт (9%)
Выравнивание : Разделение по промежуткам
Продолжительность промежутка : 40 мс. (1,00 видеокадр)
Время предзагрузки промежутка : 500 мс.

Скриншот с названием постановки

Скриншоты





Показать сообщения:    

Текущее время: 05-Дек 15:28

Часовой пояс: UTC + 3


Вы не можете начинать темы
Вы не можете отвечать на сообщения
Вы не можете редактировать свои сообщения
Вы не можете удалять свои сообщения
Вы не можете голосовать в опросах
Вы не можете прикреплять файлы к сообщениям
Вы не можете скачивать файлы