Не делайте бисквиты в плохом настроении (Алексей Горовацкий, Игорь Волосецкий) [2014, драма, DVB]


 

[Цитировать]

Не делайте бисквиты в плохом настроении
08/01/15 торрент обновлен, запись трансляции EUTELSAT 36A/B, 36° в.д. заменена на запись трансляции Ямал 202, 49° в.д.. Пеимущества - битрейт видео 5300 против 1150, звук 256 против 192
Жанр: драма
Год выпуска: 2014
Продолжительность: 01:08:33
Режиссёр: Алексей Горовацкий, Игорь Волосецкий
В ролях: Фёдор Степанов, Ирэна Дубровская
Описание: Героиня - современная жительница Петербурга, женщина бальзаковского возраста. Она считает себя неудачницей, а судьбу - несложившейся. Случайная встреча с провинциалом сумеет объяснить ей, какая это ценность - жизнь....
Доп. информация: Запись потока *.ts со спутника Ямал 202, 49° в.д., ремукс в *.mpg программой VideoReDo.
Качество видео: DVB
Формат видео: MPEG-PS
Видео: MPEG Video, 720(768)x576 (4:3), 25,000 кадров/сек, 5323 Кбит/сек
Аудио: MPEG Audio, 48,0 КГц, 256 Кбит/сек, 2 канала

MediaInfo

Общее
Полное имя : D:\Torrent\НЕ ДЕЛАЙТЕ БИСКВИТЫ В ПЛОХОМ НАСТРОЕНИИ (КУЛЬТУРА 49).mpg
Формат : MPEG-PS
Размер файла : 2,75 Гбайт
Продолжительность : 1 ч. 9 м.
Режим общего битрейта : Переменный
Общий поток : 5692 Кбит/сек
Видео
Идентификатор : 224 (0xE0)
Формат : MPEG Video
Версия формата : Version 2
Профиль формата : Main@Main
Параметр BVOP формата : Да
Параметр матрицы формата : Выборочная
Параметр GOP формата : M=3, N=15
Format_Settings_PictureStructure : Frame
Продолжительность : 1 ч. 9 м.
Вид битрейта : Переменный
Битрейт : 5323 Кбит/сек
Максимальный битрейт : 15,0 Мбит/сек
Ширина : 720 пикселей
Высота : 576 пикселей
Соотношение сторон : 4:3
Частота кадров : 25,000 кадров/сек
Стандарт вещания : PAL
Цветовое пространство : YUV
Субдискретизация насыщенности : 4:2:0
Битовая глубина : 8 бит
Тип развёртки : Чересстрочная
Порядок развёртки : Верхнее поле первое
Метод сжатия : С потерями
Бит/(Пиксели*Кадры) : 0.513
Временной код первого кадра : 00:00:00:00
Оригинал временного кода : Group of pictures header
Размер потока : 2,57 Гбайт (94%)
Аудио
Идентификатор : 192 (0xC0)
Формат : MPEG Audio
Версия формата : Version 1
Профиль формата : Layer 2
Продолжительность : 1 ч. 9 м.
Вид битрейта : Постоянный
Битрейт : 256 Кбит/сек
Каналы : 2 канала
Частота : 48,0 КГц
Метод сжатия : С потерями
Задержка видео : 1 мс.
Размер потока : 126 Мбайт (4%)

Скриншот c названием фильма




Показать сообщения:    

Текущее время: 08-Дек 03:12

Часовой пояс: UTC + 3


Вы не можете начинать темы
Вы не можете отвечать на сообщения
Вы не можете редактировать свои сообщения
Вы не можете удалять свои сообщения
Вы не можете голосовать в опросах
Вы не можете прикреплять файлы к сообщениям
Вы не можете скачивать файлы