Фруттовердура (Иван Поповски) [2013 г., сказка, WEB-DLRip] Московский театр "Мастерская Петра Фоменко"


 

[Цитировать]

Фруттовердура Название театра: Московский театр "Мастерская Петра Фоменко".
Год выпуска: 2013.
Жанр: сказка.
Продолжительность: 00:37:01.
Режиссеры: Иван Поповски.
В ролях:
Андрей Казаков, Кирилл Пирогов, Иван Поповски, Олег Любимов, Сергей Якубенко, Игорь Овчинников, Олег Нирян, Анатолий Горячев, Юрий Буторин, Владимир Топцов, Валюс Тертелис, Иван Верховых, Степан Пьянков, Михаил Крылов, Никита Тюнин, Елена Ворончихина, Василий Фирсов, Моника Санторо, Иван Вакуленко, Игорь Войнаровский, Дмитрий Рудков, Николай Орловский, Екатерина Смирнова, Дмитрий Захаров, Серафима Огарева, Федор Малышев, Амбарцум Кабанян, Мария Козяр, Татьяна Альбрехт, Анна Белякова.
О спектакле:
Эта новогодняя сказка про страну Фруттовердуру, где живут овощи и фрукты, была показана в театре "Мастерская П.Фоменко" 30 декабря 2013 года.
Спектакль был поставлен для детей театра.

Дополнительная информация:
Страна: Россия .

Релиз

Качество видео:...WEB-DLRip
Формат:.................AVI
Видео:..720x400 (1.80:1), 25 fps, XviD MPEG-4 ~1852 kbps avg, 0.26 bit/pixel
Аудио:..48 kHz, MPEG Layer 3, 2 ch, ~128.00 kbps avg

Отчет MI

Общее
Полное имя : Fruttoverdura_Masterskkaya.Fomenko.2013.XviD.WEB-DLRip.fenixclub.avi
Формат : AVI
Формат/Информация : Audio Video Interleave
Размер файла : 527 Мбайт
Продолжительность : 37 м.
Общий поток : 1991 Кбит/сек
Видео
Идентификатор : 0
Формат : MPEG-4 Visual
Профиль формата : Advanced Simple@L5
Параметр BVOP формата : 2
Параметр QPel формата : Нет
Параметр GMC формата : Без точки перехода
Параметр матрицы формата : Выборочная
Идентификатор кодека : XVID
Идентификатор кодека/Подсказка : XviD
Продолжительность : 37 м.
Битрейт : 1853 Кбит/сек
Ширина : 720 пикселей
Высота : 400 пикселей
Соотношение сторон : 16:9
Частота кадров : 25,000 кадров/сек
Цветовое пространство : YUV
Субдискретизация насыщенности : 4:2:0
Битовая глубина : 8 бит
Тип развёртки : Прогрессивная
Метод сжатия : С потерями
Бит/(Пиксели*Кадры) : 0.257
Размер потока : 491 Мбайт (93%)
Библиотека кодирования : XviD 1.2.1 (UTC 2008-12-04)
Аудио
Идентификатор : 1
Формат : MPEG Audio
Версия формата : Version 1
Профиль формата : Layer 3
Режим : Joint stereo
Расширение режима : MS Stereo
Идентификатор кодека : 55
Идентификатор кодека/Подсказка : MP3
Продолжительность : 37 м.
Продолжительность оригинала : 37 м.
Вид битрейта : Постоянный
Битрейт : 128 Кбит/сек
Каналы : 2 канала
Частота : 48,0 КГц
Метод сжатия : С потерями
Размер потока : 33,9 Мбайт (6%)
Выравнивание : Соединение по промежуткам
Продолжительность промежутка : 40 мс. (1,00 видеокадр)

Скриншот с названием постановки

Скриншоты

Альтернативный хост




Показать сообщения:    

Текущее время: 09-Дек 16:34

Часовой пояс: UTC + 3


Вы не можете начинать темы
Вы не можете отвечать на сообщения
Вы не можете редактировать свои сообщения
Вы не можете удалять свои сообщения
Вы не можете голосовать в опросах
Вы не можете прикреплять файлы к сообщениям
Вы не можете скачивать файлы