Майская ночь (Эльвира Данилина) [2013 г., Фэнтези, комедия, HDTVRip] Саратовский государственный академический театр драмы им. И.А. Слонова, Саратовская государственная консерватория им. Л. В. Собинова, Театральный институт


 

[Цитировать]

Майская ночь Название театра: Саратовский государственный академический театр драмы им. И.А. Слонова, Саратовская государственная консерватория им. Л. В. Собинова, Театральный институт.
Год выпуска: 2013.
Жанр: Фэнтези, комедия.
Продолжительность: 01:33:04.
Режиссер: заслуженная артистка России Эльвира Данилина.
Действующие лица и исполнители:
Левко - Александр Гайдаржи,
Ганна - Яна Капцова,
Голова - Роман Рощин,
Панночка - Елена Земскова,
Ведьма - Валерия Малинина,
Хивря - Алена Каниболоцкая,
Попович - Артем Тихомиров,
Каленик - Евгений Галанцев,
Писарь - Александр Куликов,
Винокур - Александр Степанов,
Девушки, они же утопленницы - Варвара Алексеева, виктория Арапова, Элеонора Бактыгереева, Вероника Виноградова, Алена Каниболотская, Яна Капцова, Марина Кубышкина, Жанна Кулагина, Валерия Малинина, Мария Путютина,
Парубки, они же десятские - Евгений Галанцев, Александр Демидов, Петр Костряков, Александр Куликов, Роман Рощин, Александр Степанов, Артем Тихомиров, Игорь Юшкин.
О спектакле:
По произведениям Николая Гоголя "Сорочинская ярмарка", "Ночь перед Рождеством", "Майская ночь", "Старосветские помещики".
Молодой парубок Левко влюбляется в красавицу Ганну. Отец Левко, сельский Голова, не даёт согласия на их брак. Случайно Левко становится свидетелем объяснения Головы в любви к его невесте. Левко решает не сдаваться и уговаривает своих товарищей "побесить" Голову и распевает каплеты о грехах Головы, которые слышит всё село. На шальных парубков начинается облава. Левко удаётся уйти от преследователей. На берегу заброшенного пруда он встречается с Панночкой, жившей когда-то в этом селе и бывшей дочкой сотника, а сейчас ставшей Утопленницей. Панночка просит молодого человека помочь ей отыскать Мачеху, которая превратилась в одну из утопленниц и избежала наказания. Левко помогает бедной Панночке, и та награждает его бесценным подарком - грамотой с резрешением на брак с Ганной.
Дипломный спектакль мастерской народного артиста России Григория Аредакова.
Спектакль идёт на Малой сцене Саратовского государственного академического театра драмы им. И. А. Слонова.

Дополнительная информация:
Страна: Россия .
Автор: Николай Гоголь.
Автор инсценировки и постановка: заслуженная артистка России Эльвира Данилина.
Художественный руководитель постановки: народный артист России Григорий Аредаков.
Художник-постановщик: Юрий Наместников.
Художник по свету: заслуженный работник культуры Росии Дмитрий Крылов.
Хормейстер: Жанна Кулагина.
Премьера состоялась: 28 ноября 2013 года.
Видеозапись: Дмитрий Нечаев.

Релиз
Рип sharky.

Качество видео:...HDTVRip
Формат:.................AVI
Видео:..704x400 (1.76:1), 25 fps, XviD build 50 ~1474 kbps avg, 0.21 bit/pixel
Аудио:..48 kHz, AC3 Dolby Digital, 2/0 (L,R) ch, ~192 kbps

Отчет MI

Общее
Полное имя : Majskaya.noch'_Saratovskij.GATD.im.Slonova.Sfratovskaya.GK.im.Sobinova.TI.2013.XviD.HDTVRip.fenixclub.avi
Формат : AVI
Формат/Информация : Audio Video Interleave
Размер файла : 1,09 Гбайт
Продолжительность : 1 ч. 33 м.
Общий поток : 1677 Кбит/сек
Программа кодирования : VirtualDubMod 1.5.10.3 | www.virtualdub-fr.org || (build 2550/release)
Библиотека кодирования : VirtualDubMod build 2550/release
Видео
Идентификатор : 0
Формат : MPEG-4 Visual
Профиль формата : Advanced Simple@L5
Параметр BVOP формата : 1
Параметр QPel формата : Нет
Параметр GMC формата : Без точки перехода
Параметр матрицы формата : Default (H.263)
Идентификатор кодека : XVID
Идентификатор кодека/Подсказка : XviD
Продолжительность : 1 ч. 33 м.
Битрейт : 1475 Кбит/сек
Ширина : 704 пикселя
Высота : 400 пикселей
Соотношение сторон : 16:9
Частота кадров : 25,000 кадров/сек
Цветовое пространство : YUV
Субдискретизация насыщенности : 4:2:0
Битовая глубина : 8 бит
Тип развёртки : Прогрессивная
Метод сжатия : С потерями
Бит/(Пиксели*Кадры) : 0.209
Размер потока : 982 Мбайт (88%)
Библиотека кодирования : XviD 1.2.1 (UTC 2008-12-04)
Аудио
Идентификатор : 1
Формат : AC-3
Формат/Информация : Audio Coding 3
Расширение режима : CM (complete main)
Параметр Endianness формата : Big
Идентификатор кодека : 2000
Продолжительность : 1 ч. 33 м.
Вид битрейта : Постоянный
Битрейт : 192 Кбит/сек
Каналы : 2 канала
Расположение каналов : Front: L R
Частота : 48,0 КГц
Битовая глубина : 16 бит
Метод сжатия : С потерями
Размер потока : 128 Мбайт (11%)
Выравнивание : Разделение по промежуткам
Продолжительность промежутка : 40 мс. (1,00 видеокадр)
Время предзагрузки промежутка : 500 мс.

Скриншоты


Альтернативный хост





Показать сообщения:    

Текущее время: 08-Дек 17:20

Часовой пояс: UTC + 3


Вы не можете начинать темы
Вы не можете отвечать на сообщения
Вы не можете редактировать свои сообщения
Вы не можете удалять свои сообщения
Вы не можете голосовать в опросах
Вы не можете прикреплять файлы к сообщениям
Вы не можете скачивать файлы