Евгений Гришковец. Новая версия спектакля "Как я съел собаку" (Евгений Гришковец) [2014, моноспектакль, WEB-DL]


 

[Цитировать]

Евгений Гришковец. Новая версия спектакля "Как я съел собаку"
Жанр: моноспектакль
Год выпуска: 2014
Продолжительность: 02:17:32
Режиссёр: Евгений Гришковец
В ролях: Евгений Гришковец
Описание: Евгений Гришковец: "Как я съел собаку" (Полная видеоверсия спектакля). Новая версия спектакля Евгения Гришковца "Как я съел собаку". Записана в 2014 году.
Запись с ютуба.
DVD выйдет позже.
Доп. информация:
От автора:
" Сегодня, наконец-то, предъявляю всем желающим новую видеоверсию спектакля «Как я съел собаку». Она записана в этом году в Москве на сцене Театрального центра на Страстном. Это тот вариант спектакля, который я ощущаю актуальным и живым для сегодняшнего времени и для моего сегодняшнего возраста. От предыдущей видеоверсии его отделяет одиннадцать лет. Если кому-то любопытно, можете сравнить. Разница огромна. Спектакль изменился так же, как изменился я. Спектакль стал определённо проще, яснее, точнее, трагичнее и старше. Изменилась интонация. Огрубел голос. Охрип. Жесты и движения стали более скупыми и строгими. Смеха в зале меньше не стало. Но и смех стал другим… Если будет интересно, попробуйте сравнить две видеоверсии.
Очень хочу, чтобы Вы в первых числах нового года нашли пару часов в тишине этих особо спокойных послепраздничных дней и посмотрели обновлённую и повзрослевшую, но ещё не постаревшую «Собаку». Думаю, что спектакль сможет порадовать…"
Качество видео: WEB-DL
Формат видео: MP4
Видео: MPEG4 Video (H264) 640x360 25fps
Аудио: AAC 44100Hz stereo 95kbps

MediaInfo

General
Complete name : Новая версия спектакля Евгения Гришковца Как я съел собаку.mp4
Format : MPEG-4
Format profile : Base Media / Version 2
Codec ID : mp42
File size : 384 MiB
Duration : 2h 17mn
Overall bit rate mode : Variable
Overall bit rate : 390 Kbps
Encoded date : UTC 2014-12-01 01:42:06
Tagged date : UTC 2014-12-01 01:42:06
gsst : 0
gstd : 8252440
gssd : BD075FA62HH1420124174755725
gshh : r7---sn-5hn7ym7z.googlevideo.com
Video
ID : 1
Format : AVC
Format/Info : Advanced Video Codec
Format profile : Baseline@L3.0
Format settings, CABAC : No
Format settings, ReFrames : 1 frame
Format settings, GOP : M=1, N=60
Codec ID : avc1
Codec ID/Info : Advanced Video Coding
Duration : 2h 17mn
Bit rate : 292 Kbps
Maximum bit rate : 868 Kbps
Width : 640 pixels
Height : 360 pixels
Display aspect ratio : 16:9
Frame rate mode : Constant
Frame rate : 25.000 fps
Color space : YUV
Chroma subsampling : 4:2:0
Bit depth : 8 bits
Scan type : Progressive
Bits/(Pixel*Frame) : 0.051
Stream size : 287 MiB (75%)
Tagged date : UTC 2014-12-01 01:42:32
Audio
ID : 2
Format : AAC
Format/Info : Advanced Audio Codec
Format profile : LC
Codec ID : 40
Duration : 2h 17mn
Bit rate mode : Variable
Bit rate : 96.0 Kbps
Maximum bit rate : 104 Kbps
Channel(s) : 2 channels
Channel positions : Front: L R
Sampling rate : 44.1 KHz
Compression mode : Lossy
Stream size : 94.4 MiB (25%)
Title : IsoMedia File Produced by Google, 5-11-2011
Encoded date : UTC 2014-12-01 01:42:19
Tagged date : UTC 2014-12-01 01:42:32

Скриншот с названием постановки

Скриншоты




Показать сообщения:    

Текущее время: 10-Дек 13:47

Часовой пояс: UTC + 3


Вы не можете начинать темы
Вы не можете отвечать на сообщения
Вы не можете редактировать свои сообщения
Вы не можете удалять свои сообщения
Вы не можете голосовать в опросах
Вы не можете прикреплять файлы к сообщениям
Вы не можете скачивать файлы