Срочно требуются седые волосы (Иван Рассомахин) [1970, мелодрама, телеспектакль, TVRip]


 

[Цитировать]

Срочно требуются седые волосы
Телеспектакль
Жанр: мелодрама
Год выпуска: 1970
Продолжительность: 01:29:37
Режиссёр: Иван Рассомахин
В ролях:
Гущин – Кирилл Лавров
Мария Васильевна – Нина Ургант
Женя – Елена Ефимова
Наташа Проскурова – Наталья Тенякова
Басалаев – Всеволод Кузнецов
Поэт – Юзеф Мироненко
Композитор – Александр Хочинский
Инженер – Борис Самошин
Шофер – Николай Муравьев
Пассажир –Георгий Арсеньев
Описание: Телеспектакль поставлен по рассказу Юрия Нагибина.
Приехав в командировку в Ленинград, инженер Сергей Иванович Гущин знакомится с молодой актрисой Наташей. Она предлагает ему показать Ленинград, но Гущин и сам прекрасно знает этот город - он служил здесь во время войны. Они ищут повод для дальнейших встреч, но он всегда находит причину, чтобы не встречаться с женщиной, которая на много лет моложе его и которую полюбил. В конце концов Наташа тоже поймет, что любит этого человека, но Гущин уедет, так и не решившись связать с ней свою судьбу...
Релиз:
Семпл: https://www.mediafire.com/?c792lup8352782v
Качество видео: TVRip
Формат видео: AVI
Видео: 640x480 (1.33:1), 25 fps, XviD MPEG-4 ~1030 kbps avg, 0.13 bit/pixel
Аудио: 44.100 kHz, MPEG Layer 3, 2 ch, ~128.00 kbps avg

MediaInfo

Полное имя : Srochno.trebuyutsya.sedye.volosy.1970.TVRip.fenixclub.avi
Формат : AVI
Формат/Информация : Audio Video Interleave
Размер файла : 749 Мбайт
Продолжительность : 1 ч. 29 м.
Общий поток : 1169 Кбит/сек
Программа кодирования : VirtualDubModRus 1.5.10.2 (build 2542/release)
Библиотека кодирования : VirtualDubMod build 2542/release
Видео
Идентификатор : 0
Формат : MPEG-4 Visual
Профиль формата : Advanced Simple@L5
Параметр BVOP формата : 2
Параметр QPel формата : Нет
Параметр GMC формата : Без точки перехода
Параметр матрицы формата : Default (H.263)
Режим смешивания : Сжатый битовый поток
Идентификатор кодека : XVID
Идентификатор кодека/Подсказка : XviD
Продолжительность : 1 ч. 29 м.
Битрейт : 1031 Кбит/сек
Ширина : 640 пикселей
Высота : 480 пикселей
Соотношение сторон : 4:3
Частота кадров : 25,000 кадров/сек
Цветовое пространство : YUV
Субдискретизация насыщенности : 4:2:0
Битовая глубина : 8 бит
Тип развёртки : Прогрессивная
Метод сжатия : С потерями
Бит/(Пиксели*Кадры) : 0.134
Размер потока : 661 Мбайт (88%)
Библиотека кодирования : XviD 1.2.1 (UTC 2008-12-04)
Аудио
Идентификатор : 1
Формат : MPEG Audio
Версия формата : Version 1
Профиль формата : Layer 3
Режим : Joint stereo
Расширение режима : MS Stereo
Идентификатор кодека : 55
Идентификатор кодека/Подсказка : MP3
Продолжительность : 1 ч. 29 м.
Вид битрейта : Постоянный
Битрейт : 128 Кбит/сек
Каналы : 2 канала
Частота : 44,1 КГц
Метод сжатия : С потерями
Размер потока : 82,1 Мбайт (11%)
Выравнивание : Разделение по промежуткам
Продолжительность промежутка : 40 мс. (1,00 видеокадр)
Время предзагрузки промежутка : 500 мс.

Скриншот с названием постановки

Скриншоты




Показать сообщения:    

Текущее время: 03-Дек 20:40

Часовой пояс: UTC + 3


Вы не можете начинать темы
Вы не можете отвечать на сообщения
Вы не можете редактировать свои сообщения
Вы не можете удалять свои сообщения
Вы не можете голосовать в опросах
Вы не можете прикреплять файлы к сообщениям
Вы не можете скачивать файлы