Извещение Марии (Борис Луценко) [2007 г., Беларусь, драматическая мистерия, SATRip] Национальный драматический театр им. М.Горького (Русский драматический театр), г. Минск


 

[Цитировать]

Извещение Марии (2 действия) Название театра: Национальный драматический театр им. М.Горького (Русский драматический театр), г. Минск.
Год выпуска: 2007.
Страна: Беларусь .
Жанр: драматическая мистерия.
Продолжительность: 01:26:43 + 00:58:00 (02:24:43).
Язык: русский.
Режиссер: народный артист Беларуси Борис Луценко.
Действующие лица и исполнители:
Анн Веркор – заслуженный артист России Олег Корчиков,
Мать – народная артистка Беларуси Белла Масумян,
Виолена – Анастасия Шпаковская,
Пьер де Краон – Иван Мацкевич,
Жак Ури – Сергей Чекерес,
Мара – Юлия Полубинская,
Глухонемой, Неизвестный – Виктор Гудинович,
Звонарь – Богдан Березкин.
Спектакль вела: Галина Кочеткова.
О спектакле:
Глава семьи Анн Веркор отправляется в Иерусалим поклониться Богу. Его младшая дочь Мара не может спокойно смотреть на счастье своей родной сестры, собирающейся замуж за красавца Жака Ури. Но что это? Уж не грезит ли Мара наяву? Виолена целует в губы… прокажённого Пьера де Краона! Какое немыслимое грехопадение накануне свадьбы!.. Правда, Жак не из тех, кто верит россказням и слухам. Однако есть доказательство, которое предоставит ему сама Виолена. Это след проказы на её теле...
Много бед и несчастий ждут героев спектакля "Извещение Марии" на пути к единственно верной истине: "Что стоит мир в сравнении с жизнью? И что стоит жизнь, если её не отдать?" Отдать, приняв всю скорбь мира, боль разгромленной и униженной Родины, и боль всех христиан Земли за Веру, расчлененную надвое.

Дополнительная информация:
Выпущено: © Белтелерадиокомпания.
Награды и номинации:
• 2004 - II-й Международный театральный форум «Золотой Витязь» - почетные дипломы в номинациях "За актерский Ансамбль" и "Лучшее музыкальное оформление".
Автор: Поль Клодель.
Перевод Ольги Седаковой.
В спектакле прозвучала музыка из произведений Антонио Верачини, Георга Генделя, Оливье Мессиана, Джованни Перголези.
Сценическая композиция и режиссер-постановщик: народный артист Беларуси Борис Луценко.
Сценография: Людмила Гончарова.
Композитор и музыкальный оформитель: Александр Ренанский.
Художник по костюмам: Нина Гурло.
Балетмейстер: Игорь Глушаков.
Автор идеи и менеджер проекта: Григорий Довгялло.
Художественный руководитель театра: народный артист Беларуси, академик Международной академии театра Борис Луценко.
Премьера спектакля состоялась 26 декабря 2003 года.

О спектакле.
Релиз
Спасибо AND01AND за исходный материал.

Качество видео:...SATRip
Формат:.................AVI
Видео:..720x544 (1.32:1), 25 fps, XviD MPEG-4 ~1307 kbps avg, 0.13 bit/pixel
Аудио:..48 kHz, MPEG Layer 3, 2 ch, ~128.00 kbps avg

Отчет MI

1-е действие:
Общее
Полное имя : Izvewenie.Marii_Nacional'nyj.DT.im.Gor'kogo.Minsk.(2.chasti.iz.2).2007.XviD.SATRip.fenixclub\Izvewenie.Marii_Nacional'nyj.DT.im.Gor'kogo.Minsk.(1-ya.chast'.iz.2).2007.XviD.SATRip.fenixclub.avi
Format : AVI
Format/Info : Audio Video Interleave
File size : 897 MiB
Duration : 1h 26mn
Overall bit rate : 1 446 Kbps
Writing application : VirtualDubModRus 1.5.10.2 (build 2542/release)
Writing library : VirtualDub build 32842/release
Video
ID : 0
Format : MPEG-4 Visual
Format profile : Advanced Simple@L5
Format settings, BVOP : 2
Format settings, QPel : No
Format settings, GMC : No warppoints
Format settings, Matrix : Default (H.263)
Muxing mode : Packed bitstream
Codec ID : XVID
Codec ID/Hint : XviD
Duration : 1h 26mn
Bit rate : 1 308 Kbps
Width : 720 pixels
Height : 544 pixels
Display aspect ratio : 4:3
Frame rate : 25.000 fps
Color space : YUV
Chroma subsampling : 4:2:0
Bit depth : 8 bits
Scan type : Progressive
Compression mode : Lossy
Bits/(Pixel*Frame) : 0.134
Stream size : 811 MiB (90%)
Writing library : XviD 1.2.1 (UTC 2008-12-04)
Audio
ID : 1
Format : MPEG Audio
Format version : Version 1
Format profile : Layer 3
Mode : Joint stereo
Mode extension : MS Stereo
Codec ID : 55
Codec ID/Hint : MP3
Duration : 1h 26mn
Bit rate mode : Constant
Bit rate : 128 Kbps
Channel(s) : 2 channels
Sampling rate : 48.0 KHz
Compression mode : Lossy
Delay relative to video : 200ms
Stream size : 79.4 MiB (9%)
Alignment : Split accross interleaves
Interleave, duration : 40 ms (1.00 video frame)
Interleave, preload duration : 500 ms
Writing library : LAME3.98
2-е действие:
Общее
Полное имя : Izvewenie.Marii_Nacional'nyj.DT.im.Gor'kogo.Minsk.(2.chasti.iz.2).2007.XviD.SATRip.fenixclub\Izvewenie.Marii_Nacional'nyj.DT.im.Gor'kogo.Minsk.(2-ya.chast'.iz.2).2007.XviD.SATRip.fenixclub.avi
Format : AVI
Format/Info : Audio Video Interleave
File size : 600 MiB
Duration : 57mn 59s
Overall bit rate : 1 446 Kbps
Writing application : VirtualDubModRus 1.5.10.2 (build 2542/release)
Writing library : VirtualDub build 32842/release
Video
ID : 0
Format : MPEG-4 Visual
Format profile : Advanced Simple@L5
Format settings, BVOP : 2
Format settings, QPel : No
Format settings, GMC : No warppoints
Format settings, Matrix : Default (H.263)
Muxing mode : Packed bitstream
Codec ID : XVID
Codec ID/Hint : XviD
Duration : 57mn 59s
Bit rate : 1 308 Kbps
Width : 720 pixels
Height : 544 pixels
Display aspect ratio : 4:3
Frame rate : 25.000 fps
Color space : YUV
Chroma subsampling : 4:2:0
Bit depth : 8 bits
Scan type : Progressive
Compression mode : Lossy
Bits/(Pixel*Frame) : 0.134
Stream size : 543 MiB (90%)
Writing library : XviD 1.2.1 (UTC 2008-12-04)
Audio
ID : 1
Format : MPEG Audio
Format version : Version 1
Format profile : Layer 3
Mode : Joint stereo
Mode extension : MS Stereo
Codec ID : 55
Codec ID/Hint : MP3
Duration : 57mn 59s
Bit rate mode : Constant
Bit rate : 128 Kbps
Channel(s) : 2 channels
Sampling rate : 48.0 KHz
Compression mode : Lossy
Delay relative to video : 250ms
Stream size : 53.1 MiB (9%)
Alignment : Split accross interleaves
Interleave, duration : 40 ms (1.00 video frame)
Interleave, preload duration : 500 ms.

Скриншоты

Альтернативный хост




Показать сообщения:    

Текущее время: 05-Дек 05:26

Часовой пояс: UTC + 3


Вы не можете начинать темы
Вы не можете отвечать на сообщения
Вы не можете редактировать свои сообщения
Вы не можете удалять свои сообщения
Вы не можете голосовать в опросах
Вы не можете прикреплять файлы к сообщениям
Вы не можете скачивать файлы