Все в саду (Валерий Маслюк) [1992 г., Беларусь, драма, SATRip] Национальный драматический театр им. М.Горького (Русский драматический театр), г. Минск


 

[Цитировать]

Все в саду (2 действия) Название театра: Национальный драматический театр им. М.Горького (Русский драматический театр), г. Минск.
Год выпуска: 1992.
Страна: Беларусь .
Жанр: драма.
Продолжительность: 01:15:25 + 00:51:26 (02:06:51).
Язык: русский.
Режиссер: лауреат Государственной премии БССР Валерий Маслюк.
Действующие лица и исполнители:
Ричард – народный артист СССР Ростислав Янковский,
Дженни – заслуженная артистка БССР Белла Масумян,
Роджер – Андрей Душечкин,
Джек – Владимир Шелестов,
Миссис Туз – заслуженная артистка БССР Людмила Былинская,
Чак – Вячеслав Солодилов,
Берилл – Лина Цветкова,
Шилберт – Валерий Шушкевич,
Луиза – Татьяна Гаркуша,
Пери – Валерий Бондаренко,
Цинтия – Елена Пастревич.
О спектакле:
Пьесу "Всё в саду" американский драматург Эдвард Олби написал в 1967 году.
Дженни и Роберт – люди не бедные. У них есть дом, большой сад, машина, сын учится в престижной школе. Но ведь друзья и знакомые имеют больше. И вот, как в сказке, в доме появляется таинственная незнакомка. Услышав её предложение, немного посомневавшись, Дженни решается на поступок, который ранее посчитала бы весьма сомнительным. Что ж: "Ведь надо жить прилично, не хуже других".
Будет ли семья счастлива, достигнув материального благополучия? Не потребуются ли новые человеческие жертвы? Не превратятся ли вчерашние благонравные граждане в банальных уголовных преступников?

Дополнительная информация:
Выпущено: © Белтелерадиокомпания.
Автор: Эдвард Олби.
Сценическая редакция и постановка: лауреат Государственной премии БССР Валерий Маслюк.
Художник-постановщик: заслуженный деятель искусств БССР Юрий Тур.
Художник по костюмам: Наталья Рудзина.
Премьера спектакля состоялась в 1984 году.

О спектакле.
Релиз
Спасибо AND01AND за исходный материал.

Качество видео:...SATRip
Формат:.................AVI
Видео:..688x512 (1.34:1), 25 fps, XviD MPEG-4 ~1509 kbps avg, 0.17 bit/pixel
Аудио:..48 kHz, MPEG Layer 3, 2 ch, ~128.00 kbps avg

Отчет MI

1-е действие:
Общее
Полное имя : Vse.v.sadu_Nacional'nyj.DT.im.Gor'kogo.Minsk.(2.dejstviya.iz.2).1992.XviD.SATRip.fenixclub\Vse.v.sadu_Nacional'nyj.DT.im.Gor'kogo.Minsk.(1-e.dejstvie.iz.2).1992.XviD.SATRip.fenixclub.avi
Format : AVI
Format/Info : Audio Video Interleave
File size : 889 MiB
Duration : 1h 15mn
Overall bit rate : 1 648 Kbps
Writing application : VirtualDubModRus 1.5.10.2 (build 2542/release)
Writing library : VirtualDub build 32842/release
Video
ID : 0
Format : MPEG-4 Visual
Format profile : Advanced Simple@L5
Format settings, BVOP : 2
Format settings, QPel : No
Format settings, GMC : No warppoints
Format settings, Matrix : Default (H.263)
Muxing mode : Packed bitstream
Codec ID : XVID
Codec ID/Hint : XviD
Duration : 1h 15mn
Bit rate : 1 510 Kbps
Width : 688 pixels
Height : 512 pixels
Display aspect ratio : 4:3
Frame rate : 25.000 fps
Color space : YUV
Chroma subsampling : 4:2:0
Bit depth : 8 bits
Scan type : Progressive
Compression mode : Lossy
Bits/(Pixel*Frame) : 0.171
Stream size : 815 MiB (92%)
Writing library : XviD 1.2.1 (UTC 2008-12-04)
Audio
ID : 1
Format : MPEG Audio
Format version : Version 1
Format profile : Layer 3
Mode : Joint stereo
Mode extension : MS Stereo
Codec ID : 55
Codec ID/Hint : MP3
Duration : 1h 15mn
Bit rate mode : Constant
Bit rate : 128 Kbps
Channel(s) : 2 channels
Sampling rate : 48.0 KHz
Compression mode : Lossy
Delay relative to video : 200ms
Stream size : 69.0 MiB (8%)
Alignment : Split accross interleaves
Interleave, duration : 40 ms (1.00 video frame)
Interleave, preload duration : 500 ms.
2-е действие:
Общее
Полное имя : Vse.v.sadu_Nacional'nyj.DT.im.Gor'kogo.Minsk.(2.dejstviya.iz.2).1992.XviD.SATRip.fenixclub\Vse.v.sadu_Nacional'nyj.DT.im.Gor'kogo.Minsk.(2-e.dejstvie.iz.2).1992.XviD.SATRip.fenixclub.avi
Format : AVI
Format/Info : Audio Video Interleave
File size : 606 MiB
Duration : 51mn 26s
Overall bit rate : 1 647 Kbps
Writing application : VirtualDubModRus 1.5.10.2 (build 2542/release)
Writing library : VirtualDub build 32842/release
Video
ID : 0
Format : MPEG-4 Visual
Format profile : Advanced Simple@L5
Format settings, BVOP : 2
Format settings, QPel : No
Format settings, GMC : No warppoints
Format settings, Matrix : Default (H.263)
Muxing mode : Packed bitstream
Codec ID : XVID
Codec ID/Hint : XviD
Duration : 51mn 26s
Bit rate : 1 509 Kbps
Width : 688 pixels
Height : 512 pixels
Display aspect ratio : 4:3
Frame rate : 25.000 fps
Color space : YUV
Chroma subsampling : 4:2:0
Bit depth : 8 bits
Scan type : Progressive
Compression mode : Lossy
Bits/(Pixel*Frame) : 0.171
Stream size : 555 MiB (92%)
Writing library : XviD 1.2.1 (UTC 2008-12-04)
Audio
ID : 1
Format : MPEG Audio
Format version : Version 1
Format profile : Layer 3
Mode : Joint stereo
Mode extension : MS Stereo
Codec ID : 55
Codec ID/Hint : MP3
Duration : 51mn 26s
Bit rate mode : Constant
Bit rate : 128 Kbps
Channel(s) : 2 channels
Sampling rate : 48.0 KHz
Compression mode : Lossy
Delay relative to video : 250ms
Stream size : 47.1 MiB (8%)
Alignment : Split accross interleaves
Interleave, duration : 40 ms (1.00 video frame)
Interleave, preload duration : 500 ms.

Скриншоты

Альтернативный хост




Показать сообщения:    

Текущее время: 07-Дек 00:54

Часовой пояс: UTC + 3


Вы не можете начинать темы
Вы не можете отвечать на сообщения
Вы не можете редактировать свои сообщения
Вы не можете удалять свои сообщения
Вы не можете голосовать в опросах
Вы не можете прикреплять файлы к сообщениям
Вы не можете скачивать файлы