Полковник-птица (Сергей Бобровский) [2014 г., психо-утопия, CAMRip] Липецкий государственный академический театр драмы имени Л. Н. Толстого


 

[Цитировать]

Полковник-птица Название театра: Липецкий государственный академический театр драмы имени Л. Н. Толстого.
Год выпуска: 2014.
Жанр: психо-утопия.
Продолжительность: 02:20:26.
Режиссер: Сергей Бобровский.
Действующие лица и исполнители:
Давуд - Эмин Мамедов,
Шофер - заслуженный артист России Вячеслав Михеев,
Пепа - Владимир Борисов,
Матей - Андрей Литвинов,
Киро - Александр Скачков,
Фетисов - Максим Дмитроченков,
Доктор - Дмитрий Гусев.
О спектакле:
Его зовут - русский. Он - полковник Таманской дивизии.
Он верит, что дух армии во внутреннем строе каждого воина.
Он стал добровольцем во время войны в Боснии, где потерял всю семью и впал в глубокую шизофреническую депрессию.
Но он слышит то, что молвят Божьи уста и знает, что дорога в рай пролегает через ад.
Он уверен, что "хотеть - значит мочь" и ему нет равных.
Он обязан покинуть этот мир и будьте уверены – у него получится. Ведь он – Птица.

Дополнительная информация:
Страна: Россия .
Награды и номинации:
• 2012 - 28-й фестиваль «Липецкие театральные встречи» - приз за лучшую режиссуру и приз за лучшую мужскую роль (Максим Дмитроченков).
Автор: Христо Бойчев.

О спектакле.
Релиз
Рип sharky.

Качество видео:...CAMRip
Формат:.................AVI
Видео:..704x400 (1.76:1), 25 fps, DivX Codec 4.x ~1343 kbps avg, 0.19 bit/pixel
Аудио:..44.100 kHz, MPEG Layer 3, 2 ch, ~128.00 kbps avg

Отчет MI

Общее
Полное имя : Polkovnik.ptica_Lipeckij.GATD.im.Tolstogo.2014.DivX.CAMRip.fenixclub.avi
Format : AVI
Format/Info : Audio Video Interleave
File size : 1.45 GiB
Duration : 2h 20mn
Overall bit rate : 1 481 Kbps
Video
ID : 0
Format : MPEG-4 Visual
Format settings, BVOP : 1
Format settings, QPel : No
Format settings, GMC : No warppoints
Format settings, Matrix : Default (H.263)
Muxing mode : Packed bitstream
Codec ID : DX50
Codec ID/Hint : DivX 5
Duration : 2h 20mn
Bit rate : 1 343 Kbps
Width : 704 pixels
Height : 400 pixels
Display aspect ratio : 16:9
Frame rate : 25.000 fps
Color space : YUV
Chroma subsampling : 4:2:0
Bit depth : 8 bits
Scan type : Progressive
Compression mode : Lossy
Bits/(Pixel*Frame) : 0.191
Stream size : 1.32 GiB (91%)
Title : Video
Writing library : DivX 3013
Audio
ID : 1
Format : MPEG Audio
Format version : Version 1
Format profile : Layer 3
Codec ID : 55
Codec ID/Hint : MP3
Duration : 2h 20mn
Bit rate mode : Constant
Bit rate : 128 Kbps
Channel(s) : 2 channels
Sampling rate : 44.1 KHz
Compression mode : Lossy
Stream size : 129 MiB (9%)
Alignment : Split accross interleaves
Interleave, duration : 40 ms (1.00 video frame)
Interleave, preload duration : 500 ms
Title : Audio

Скриншоты


Альтернативный хост





Показать сообщения:    

Текущее время: 09-Дек 20:29

Часовой пояс: UTC + 3


Вы не можете начинать темы
Вы не можете отвечать на сообщения
Вы не можете редактировать свои сообщения
Вы не можете удалять свои сообщения
Вы не можете голосовать в опросах
Вы не можете прикреплять файлы к сообщениям
Вы не можете скачивать файлы