Чудаки (Валентина Еренькова) [2007, Республика Беларусь, Мелодрама, DVB] Национальный академический драматический театр им. Максима Горького, Минск


 

[Цитировать]

Чудаки
Название театра: Национальный академический драматический театр им. Максима Горького, Минск
Страна: Республика Беларусь
Жанр: Мелодрама
Год выпуска: 2007
Продолжительность: 2-а действия 01:14:10 + 01:10:49
Перевод: Не требуется
Язык: Русский
Режиссёр: Валентина Еренькова
В ролях:
Константин Мастаков — заслуженный артист Беларуси Сергей Чекерес
Елена — Анастасия Шпаковская
Ольга — заслуженная артистка Республики Беларусь Анна Маланкина
Вукол Потехин — заслуженный артист Беларуси Иван Мацкевич
Николай Потехин — заслуженный артист Беларуси Андрей Душечкин
Медведева — народная артистка Беларуси Белла Масумян
Зина — Елена Стеценко
Вася Турицын — Валентин Середа
Самоквасов — Андрей Захаревич
Саша — Александра Богданова
Описание: Малоизвестная пьеса Максима Горького «Чудаки» – типичная мелодрама, замешанная на своеобразном юморе начала прошлого века. Этакий каприз великого писателя, который вывел в пьесе образ «инженера человеческих душ», своего коллегу по цеху, не мощным и цельным человеком, каким был сам, а инфантильным, мягким, слабым, любителем женщин и красивой литературы. Любовный треугольник – писатель, жена писателя, любовница писателя – забавно рассыпается, когда герой увлекается еще одной женщиной, неопытной и юной. Художнику слова, кроме жены и любовницы, нужна Муза. Мудрая жена, зная поэтическую натуру блудного супруга, не спешит разрушать семью. Но не так-то просто отвоевать собственного мужа у его увлечений.
Доп. информация:
Художник-постановщик – Алла Сорокина
Художник по костюмам – Иван Айплатов
Композитор – Алексей Ереньков
Хореография – Наталья Фурман
Премьера - 25 апреля 2003 года

Благодарность: исходник для данной раздачи, записан с цифрового наземного канала, т.е. DVB-Т,
Запись потока *.ts с наземного цифрового телеканала "Беларусь 3", ремукс в *.mpg программой VideoReDo.
Семпл: http://rusfolder.com/42646691
Качество видео: DVB
Формат видео: MPG
Видео 1: MPEG2 Video 720x576 (4:3) 25.00fps, 3 030Кбит/сек
Видео 2: MPEG2 Video 720x576 (4:3) 25.00fps, 3 030Кбит/сек
Аудио: MPEG Audio 48000Hz stereo 256kbps, 2 канала

MediaInfo 1

GeneralComplete name : D:\Театр\Чудаки (2007)\Чудаки (2007)\Чудаки_01_(2007).mpgFormat : MPEG-PSFile size : 1.74 GiBDuration : 1h 14mnOverall bit rate mode : VariableOverall bit rate : 3 353 Kbps
VideoID : 224 (0xE0)Format : MPEG VideoFormat version : Version 2Format profile : Main@MainFormat settings, BVOP : YesFormat settings, Matrix : CustomFormat settings, GOP : M=3, N=15Format settings, picture st : FrameDuration : 1h 14mnBit rate mode : VariableBit rate : 3 030 KbpsMaximum bit rate : 9 500 KbpsWidth : 720 pixelsHeight : 576 pixelsDisplay aspect ratio : 4:3Frame rate : 25.000 fpsStandard : PALColor space : YUVChroma subsampling : 4:2:0Bit depth : 8 bitsScan type : InterlacedScan order : Top Field FirstCompression mode : LossyBits/(Pixel*Frame) : 0.292Time code of first frame : 00:00:00:00Time code source : Group of pictures headerGOP, Open/Closed : OpenStream size : 1.57 GiB (90%)GOP, Open/Closed of first f : Closed
AudioID : 192 (0xC0)Format : MPEG AudioFormat version : Version 1Format profile : Layer 2Duration : 1h 14mnBit rate mode : ConstantBit rate : 256 KbpsChannel(s) : 2 channelsSampling rate : 48.0 KHzCompression mode : LossyStream size : 136 MiB (8%)

MediaInfo 1

GeneralComplete name : D:\Театр\Чудаки (2007)\Чудаки (2007)\Чудаки_02_(2007).mpgFormat : MPEG-PSFile size : 1.66 GiBDuration : 1h 10mnOverall bit rate mode : VariableOverall bit rate : 3 353 Kbps
VideoID : 224 (0xE0)Format : MPEG VideoFormat version : Version 2Format profile : Main@MainFormat settings, BVOP : YesFormat settings, Matrix : CustomFormat settings, GOP : M=3, N=15Format settings, picture st : FrameDuration : 1h 10mnBit rate mode : VariableBit rate : 3 030 KbpsMaximum bit rate : 9 500 KbpsWidth : 720 pixelsHeight : 576 pixelsDisplay aspect ratio : 4:3Frame rate : 25.000 fpsStandard : PALColor space : YUVChroma subsampling : 4:2:0Bit depth : 8 bitsScan type : InterlacedScan order : Top Field FirstCompression mode : LossyBits/(Pixel*Frame) : 0.292Time code of first frame : 00:00:00:00Time code source : Group of pictures headerGOP, Open/Closed : OpenStream size : 1.50 GiB (90%)GOP, Open/Closed of first f : Closed
AudioID : 192 (0xC0)Format : MPEG AudioFormat version : Version 1Format profile : Layer 2Duration : 1h 10mnBit rate mode : ConstantBit rate : 256 KbpsChannel(s) : 2 channelsSampling rate : 48.0 KHzCompression mode : LossyDelay relative to video : 16msStream size : 130 MiB (8%)



Показать сообщения:    

Текущее время: 08-Дек 09:04

Часовой пояс: UTC + 3


Вы не можете начинать темы
Вы не можете отвечать на сообщения
Вы не можете редактировать свои сообщения
Вы не можете удалять свои сообщения
Вы не можете голосовать в опросах
Вы не можете прикреплять файлы к сообщениям
Вы не можете скачивать файлы