Зойкина квартира (Евгений Марчелли) [2012 г., Трагифарс, SATRip] Российский государственный академический театр драмы имени Федора Волкова г. Ярославль


 

[Цитировать]

Зойкина квартира Название театра: Российский государственный академический театр драмы имени Федора Волкова г. Ярославль.
Год выпуска: 2012.
Жанр: Трагифарс.
Продолжительность: 02:46:53.
Режиссер: заслуженный деятель искусств России Евгений Марчелли.
Действующие лица и исполнители:
Зоя Денисовна Пельц, вдова - Анастасия Светлова,
Павел Федорович Обольянинов - Николай Шрайбер,
Алекскандр Тарасович Аметистов, администратор - заслуженный артист России Валерий Кириллов,
Манюшка, горничная Зои - Мария Полумогина,
Анисим Зотикович Аллилуя, председатель домкома — Юрий Круглов,
Ган-дза-лин, он же Газолин, китаец - Владимир Шибанков,
Херувим, китаец - Илья Варанкин,
Алла Вадимовна - Ольга Старк,
Борис Семенович Гусь-Ремонтный - Николай Лавров,
Лизанька - Наталья Мацюк,
Мымра - Елена Шевчук,
Мадам Иванова - заслуженная артистка России Александра Чилин-Гири,
Очень ответственная Агнесса Ферапонтовна - Наталья Асанкина,
Швея - Кирилл Искратов,
Закройщица - Любовь Ветошкина,
Безответственные дамы: народная артистка России Татьяна Иванова, заслуженная артистка России Татьяна Исаева, заслуженная артистка России Галина Крылова, заслуженная артистка России Татьяна Малькова, заслуженная артистка России Ирина Сидорова, Ирина Веселова, Евгения Долгова, Галина Ефанова, Юлия Знакомцева, Наталья Кондратьева, Наталья Кучеренко, Людмила Пошехонова, Евгения Родина, Светлана Спиридонова, Анна Ткачёва.
О спектакле:
Место действия трагифарса Булгакова – нэпманская Москва середины 1920-х годов, праздничная и взвинченная, преломленная в кривом зеркале булгаковской фантастики.
В чреватом превращениями пространстве квартиры Зои Пельц, так похожем на другую "нехорошую квартиру" №50 из "Мастера и Маргариты", курится опиумный дым, развеваются волны материи, в таинственном шкафу исчезают люди, мелькают колоритные персонажи с говорящими именами Гусь-Ремонтный, Херувим, Аллилуйя. Главная героиня пьесы Зоя Пельц открывает в своей квартире пошивочную мастерскую для богатых нэпманш. Однако ее ателье – лишь искусная ширма. По вечерам ателье превращается в "веселый дом" для состоятельных клиентов. С помощью своего предприятия герои рассчитывают заработать на бегство в Париж. Однако мечты их терпят крах.
Евгения Марчелли не увлекли ни криминальная сторона сюжета, ни его социальная подоплёка. По словам режиссера, главная героиня его спектакля, "Зойка – человек, загнанный в угол, не смогший реализовать себя в жизни, профессии, любви. Дело, которое она затевает с Аметистовым - не публичный дом, а некая среда, как бы клуб. Без "кабинетов", без темы спаривания, без едва одетых моделей на подиуме. А театр. Искусство. И они так увлекаются им, что забывают, что хотели заработать на этом денег и удрать в Париж".
Режиссер решительно ломает композицию пьесы. В спектакле нет места финальному разоблачению, аресту героев сотрудниками уголовного розыска. Вместо этого Марчелли отправляет зрителей в "большое театральное путешествие". В третьем акте мечты героев спектакля воплотятся в эффектном музыкально-хореографическом шоу, составленном из номеров знаменитых мюзиклов – "Кабаре", "Чикаго".

Дополнительная информация:
Страна: Россия .
Выпущено: Культура.рф.
Автор: Михаил Булгаков.
Сценография: Виктор Шилькрот.
Костюмы: Ольга Шагалина
Музыка: Игорь Есипович
Пластика: Ирина Новикова, Игорь Григурко
Свет: Айвар Салихов, Глеб Фильштинский
Премьера спектакля состоялась 25 марта 2011 года.

О спектакле.
Релиз

Качество видео:...SATRip
Формат:.................AVI
Видео:..720x400 (1.80:1), 25 fps, XviD MPEG-4 ~1118 kbps avg, 0.16 bit/pixel
Аудио:..44.100 kHz, MPEG Layer 3, 2 ch, ~128.00 kbps avg

Отчет MI

Общее
Полное имя : Zoikina.kvartira_RATD.im.Volkova.2012.XviD.SATRip.fenixclub.avi
Format : AVI
Format/Info : Audio Video Interleave
File size : 1.47 GiB
Duration : 2h 46mn
Overall bit rate : 1 257 Kbps
Writing application : VirtualDubModRus 1.5.10.2 (build 2542/release)
Writing library : VirtualDub build 32842/release
Video
ID : 0
Format : MPEG-4 Visual
Format profile : Advanced Simple@L5
Format settings, BVOP : 2
Format settings, QPel : No
Format settings, GMC : No warppoints
Format settings, Matrix : Default (H.263)
Muxing mode : Packed bitstream
Codec ID : XVID
Codec ID/Hint : XviD
Duration : 2h 46mn
Bit rate : 1 119 Kbps
Width : 720 pixels
Height : 400 pixels
Display aspect ratio : 16:9
Frame rate : 25.000 fps
Color space : YUV
Chroma subsampling : 4:2:0
Bit depth : 8 bits
Scan type : Progressive
Compression mode : Lossy
Bits/(Pixel*Frame) : 0.155
Stream size : 1.30 GiB (89%)
Writing library : XviD 1.2.1 (UTC 2008-12-04)
Audio
ID : 1
Format : MPEG Audio
Format version : Version 1
Format profile : Layer 3
Mode : Joint stereo
Mode extension : MS Stereo
Codec ID : 55
Codec ID/Hint : MP3
Duration : 2h 46mn
Bit rate mode : Constant
Bit rate : 128 Kbps
Channel(s) : 2 channels
Sampling rate : 44.1 KHz
Compression mode : Lossy
Stream size : 153 MiB (10%)
Alignment : Split accross interleaves
Interleave, duration : 40 ms (1.00 video frame)
Interleave, preload duration : 500 ms
Writing library : LAME3.98

Скриншоты


Альтернативный хост





Показать сообщения:    

Текущее время: 11-Дек 12:55

Часовой пояс: UTC + 3


Вы не можете начинать темы
Вы не можете отвечать на сообщения
Вы не можете редактировать свои сообщения
Вы не можете удалять свои сообщения
Вы не можете голосовать в опросах
Вы не можете прикреплять файлы к сообщениям
Вы не можете скачивать файлы