Море… Ночь… Свечи… / Море… Ніч… Свічки… (Эдуард Митницкий) [2010 г., Украина, трагифарс, WEB-DLRip] Киевский государственный академический театр драмы и комедии на левом берегу Днепра


 

[Цитировать]

Море… Ночь… Свечи… / Море… Ніч… Свічки… Название театра: Киевский государственный академический театр драмы и комедии на левом берегу Днепра.
Год выпуска: 2008.
Страна: Украина .
Жанр: Невыдуманная жизнь на Средиземном море.
Продолжительность: 01:44:40.
Язык: русский.
Режиссеры: народный артист Украины, народный артист России Эдуард Митницкий, Борис Квашнев.
Действующие лица и исполнители:
Ноах Гринвальд – заслуженный артист Украины Виталий Линецкий,
Пнина – Татьяна Круликовская,
Эстер – Светлана Орличенко,
Йона – заслуженный артист Украины Петр Миронов,
Миша – заслуженный артист Украины Лев Сомов,
Рита – Татьяна Комарова,
Ализа – народная артистка Украины Неонила Белецкая,
Девицы – Анастасия Киреева, Алена Завгородняя, Ирина Мак, Наталья Озирская, Наталья Цыганенко, Юлия Григорьева.
О спектакле:
По пьесе Йосефа Бар-Йосефа «Это великое море».
Расставаясь с категориями вечными, человек идёт навстречу искушениям. Удержаться на волнах жизненного моря – почти цирковая эквилибристика. Ноаха Гринвальда «опьянила» жизнь большого города. Что делать, если вокруг столько соблазнов! Можно ли изменить прошлому и нырнуть с головой в это великое море жизни?

Дополнительная информация:
Выпущено: Киевский государственный академический театр драмы и комедии на левом берегу Днепра, ГТРК "Культура".
Автор пьесы: Йосеф Бар-Йосеф.
Перевод с иврита Светланы Шенбрунн.
Сценография: Игорь Несмеянов.
Художник по костюмам: Илона Куц.
Музыкальное решение: Александр Курий.
Хореограф: заслуженная артистка Украины Алла Рубина.
Художник по свету: Татьяна Кислицкая.
Руководитель театра: народный артист Украины и России Эдуард Митницкий.
Премьера состоялась 1 марта 2003 года.
Режиссер телеверсии: Борис Квашнев.
Операторы: Игорь Прымисский, Виталий Белозор.

О спектакле.
Релиз
Рип sharky.

Качество видео:...WEB-DLRip
Формат:.................AVI
Видео:..704x528 (1.33:1), 25 fps, DivX Codec 4.x ~1850 kbps avg, 0.20 bit/pixel
Аудио:..44.100 kHz, MPEG Layer 3, 2 ch, ~128.00 kbps avg

Отчет MediaInfo

Общее
Полное имя : More.No4.Sve4i_Kievskij.ATDiK.na.levom.beregu.Dnepra.2010.DivX.WEB-DLRip.fenixclub.avi
Format : AVI
Format/Info : Audio Video Interleave
File size : 1.45 GiB
Duration : 1h 44mn
Overall bit rate : 1 988 Kbps
Video
ID : 0
Format : MPEG-4 Visual
Format settings, BVOP : 1
Format settings, QPel : No
Format settings, GMC : No warppoints
Format settings, Matrix : Default (H.263)
Muxing mode : Packed bitstream
Codec ID : DX50
Codec ID/Hint : DivX 5
Duration : 1h 44mn
Bit rate : 1 851 Kbps
Width : 704 pixels
Height : 528 pixels
Display aspect ratio : 4:3
Frame rate : 25.000 fps
Color space : YUV
Chroma subsampling : 4:2:0
Bit depth : 8 bits
Scan type : Progressive
Compression mode : Lossy
Bits/(Pixel*Frame) : 0.199
Stream size : 1.35 GiB (93%)
Title : Video
Writing library : DivX 3013
Audio
ID : 1
Format : MPEG Audio
Format version : Version 1
Format profile : Layer 3
Codec ID : 55
Codec ID/Hint : MP3
Duration : 1h 44mn
Bit rate mode : Constant
Bit rate : 128 Kbps
Channel(s) : 2 channels
Sampling rate : 44.1 KHz
Compression mode : Lossy
Stream size : 95.8 MiB (6%)
Alignment : Split accross interleaves
Interleave, duration : 40 ms (1.00 video frame)
Interleave, preload duration : 500 ms
Title : Audio

Скриншоты


Альтернативный хост





Показать сообщения:    

Текущее время: 09-Дек 22:23

Часовой пояс: UTC + 3


Вы не можете начинать темы
Вы не можете отвечать на сообщения
Вы не можете редактировать свои сообщения
Вы не можете удалять свои сообщения
Вы не можете голосовать в опросах
Вы не можете прикреплять файлы к сообщениям
Вы не можете скачивать файлы