Этот странный русский (Владимир Андреев, Алина Казьмина) [1986 г., драма, экранизация, SATRip] Московский драматический театр имени М. Н. Ермоловой


 

[Цитировать]

Этот странный русский Название театра: Московский драматический театр имени М. Н. Ермоловой.
Год выпуска: 1986.
Жанр: драма, экранизация.
Продолжительность: 01:41:28.
Режиссер спектакля: народный артист СССР Владимир Андреев, Алина Казьмина.
Действующие лица и исполнители:
Егоров - народный артист СССР Владимир Андреев,
Джейн - Ольга Селезнева,
Амани - Татьяна Шумова,
Клод - народный артист СССР Всеволод Якут,
Бен - Юрий Комаров,
Берланга - заслуженный артист РСФСР Алексей Шейнин,
Эрнандо - Вячеслав Молоков,
Хосе - Алексей Яковлев,
Шахов - Павел Махотин,
Луис - заслуженный артист РСФСР Юрий Сагьянц.
Описание:
Русский хирург Николай Егоров оказался в одной из латиноамериканских стран по просьбе Международного Красного Креста, чтобы оказать помощь пострадавшим во время землетрясения.
В это время в стране происходит фашистский путч...

Дополнительная информация:
Страна: СССР .
Выпущено: © Главная редакция литературно-драматических программ Гостелерадио СССР.
Режиссер спектакля: народный артист СССР Владимир Андреев.
Автор пьесы: Василий Чичков.
Режиссер телеверсии: Алина Казьмина.
Оператор-постановщик: Андрей Тюпкин.
Композиторы: Эмиль Олах.
Художник-постановщик: Борис Бланк.
Премьера: 10 февраля 1986 года (ТВ).


Релиз

Качество: SATRip
Формат: AVI
Видео: 720x544 (1.32:1), 25 fps, XviD MPEG-4 ~1788 kbps avg, 0.18 bit/pixel
Аудио: 48 kHz, MPEG Layer 3, 2 ch, ~128.00 kbps avg

Отчет MI

General
Complete name : Etot.strannyi.russkij_Moskovskij.dram.teatr.im.Ermolovoj.1985.XviD.SATRip.fenixclub.avi
Format : AVI
Format/Info : Audio Video Interleave
File size : 1.37 GiB
Duration : 1h 41mn
Overall bit rate : 1 927 Kbps
Writing application : VirtualDubModRus 1.5.10.2 (build 2542/release)
Writing library : VirtualDub build 32842/release
Video
ID : 0
Format : MPEG-4 Visual
Format profile : Advanced Simple@L5
Format settings, BVOP : 2
Format settings, QPel : No
Format settings, GMC : No warppoints
Format settings, Matrix : Default (H.263)
Muxing mode : Packed bitstream
Codec ID : XVID
Codec ID/Hint : XviD
Duration : 1h 41mn
Bit rate : 1 789 Kbps
Width : 720 pixels
Height : 544 pixels
Display aspect ratio : 4:3
Frame rate : 25.000 fps
Color space : YUV
Chroma subsampling : 4:2:0
Bit depth : 8 bits
Scan type : Progressive
Compression mode : Lossy
Bits/(Pixel*Frame) : 0.183
Stream size : 1.27 GiB (93%)
Writing library : XviD 1.2.1 (UTC 2008-12-04)
Audio
ID : 1
Format : MPEG Audio
Format version : Version 1
Format profile : Layer 3
Mode : Joint stereo
Mode extension : MS Stereo
Codec ID : 55
Codec ID/Hint : MP3
Duration : 1h 41mn
Bit rate mode : Constant
Bit rate : 128 Kbps
Channel(s) : 2 channels
Sampling rate : 48.0 KHz
Compression mode : Lossy
Stream size : 92.9 MiB (7%)
Alignment : Split accross interleaves
Interleave, duration : 40 ms (1.00 video frame)
Interleave, preload duration : 500 ms.

Скриншоты


Альтернативный хост





Показать сообщения:    

Текущее время: 08-Дек 17:25

Часовой пояс: UTC + 3


Вы не можете начинать темы
Вы не можете отвечать на сообщения
Вы не можете редактировать свои сообщения
Вы не можете удалять свои сообщения
Вы не можете голосовать в опросах
Вы не можете прикреплять файлы к сообщениям
Вы не можете скачивать файлы