Жизнь Галилея (Рубен Агамирзян) [1965 г., драма, телеспектакль, TVRip]


 

[Цитировать]

Жизнь Галилея (2 части) Год выпуска: 1965.
Жанр: драма, телеспектакль.
Продолжительность: 01:28:38 + 00:44:43 (02:13:21).
Режиссер: Рубен Агамирзян.
Действующие лица и исполнители:
Галилео Галилей – народный артист РСФСР Ефим Копелян,
Вирджиния – Елизавета Акуличева,
Андреа Сарти – Владимир Особик,
Анреа Сарти в детстве – Сева Аскинадзе.
Также в спектакле заняты:
Светлана Карпинская, Николай Корн, Георгий Штиль, Олег Борисов, Изиль Заблудовский, Владимир Эренберг, Николай Боярский, Михаил Данилов, Георгий Рубин, Андрей Костричкин, Сергей Боярский, Всеволод Кузнецов, Станислав Ландграф, Сергей Поначевный, Иван Краско, Валентина Ковель, Александр Янкевский, Юрий Овсянко, Б. Шмыров.
Описание:
"Жизнь Галилея" - одно из самых значительных драматических произведений выдающегося немецкого драматурга Бертольта Брехта. Рассказывая о жизни великого ученого XVII века Галилео Галилея, Брехт рассматривает проблему свободы научного творчества и ответственности ученого перед обществом.
Действие спектакля происходит в Италии (Венеции и Флоренции) XVII века на протяжении 28 лет. Галилео Галилей, знаменитый физик, который крайне нуждается в деньгах, подтверждает при помощи телескопа картину мира Коперника, противоречащую принятой церковью официальной доктрине Птолемея, согласно которой мир вращается вокруг земли. Это приводит к его конфликту с церковью. Инквизиция требует от Галилея отозвать свое открытие, что он в конце концов и делает, чтобы остаться в живых.

Дополнительная информация:
Страна: СССР .
Выпущено: © Ленинградская студия телевидения.
Автор: Бертольт Брехт.
Художник: Александр Евграфов.
Композитор: Андрей Петров.
Ведущий оператор: Михаил Филиппов.
Релиз

Качество: TVRip
Формат: AVI
Видео: 640x480 (1.33:1), 25 fps, XviD MPEG-4 ~1330 kbps avg, 0.17 bit/pixel
Аудио: 44.100 kHz, MPEG Layer 3, 2 ch, ~128.00 kbps avg

Отчет MI

1-я часть
Общее
Полное имя : Zhizh.Galileya.1965.TVRip.fenixclub\Zhizh.Galileya.1.avi
Format : AVI
Format/Info : Audio Video Interleave
File size : 931 MiB
Duration : 1h 28mn
Overall bit rate : 1 469 Kbps
Writing application : VirtualDubModRus 1.5.10.2 (build 2542/release)
Writing library : VirtualDubMod build 2542/release
Video
ID : 0
Format : MPEG-4 Visual
Format profile : Advanced Simple@L5
Format settings, BVOP : 2
Format settings, QPel : No
Format settings, GMC : No warppoints
Format settings, Matrix : Default (H.263)
Muxing mode : Packed bitstream
Codec ID : XVID
Codec ID/Hint : XviD
Duration : 1h 28mn
Bit rate : 1 331 Kbps
Width : 640 pixels
Height : 480 pixels
Display aspect ratio : 4:3
Frame rate : 25.000 fps
Color space : YUV
Chroma subsampling : 4:2:0
Bit depth : 8 bits
Scan type : Progressive
Compression mode : Lossy
Bits/(Pixel*Frame) : 0.173
Stream size : 844 MiB (91%)
Writing library : XviD 1.2.1 (UTC 2008-12-04)
Audio
ID : 1
Format : MPEG Audio
Format version : Version 1
Format profile : Layer 3
Mode : Joint stereo
Mode extension : MS Stereo
Codec ID : 55
Codec ID/Hint : MP3
Duration : 1h 28mn
Bit rate mode : Constant
Bit rate : 128 Kbps
Channel(s) : 2 channels
Sampling rate : 44.1 KHz
Compression mode : Lossy
Stream size : 81.1 MiB (9%)
Alignment : Split accross interleaves
Interleave, duration : 40 ms (1.00 video frame)
Interleave, preload duration : 500 ms.
2-я часть
Общее
Полное имя : Zhizh.Galileya.1965.TVRip.fenixclub\Zhizh.Galileya.2.avi
Format : AVI
Format/Info : Audio Video Interleave
File size : 470 MiB
Duration : 44mn 43s
Overall bit rate : 1 469 Kbps
Writing application : VirtualDubModRus 1.5.10.2 (build 2542/release)
Writing library : VirtualDubMod build 2542/release
Video
ID : 0
Format : MPEG-4 Visual
Format profile : Advanced Simple@L5
Format settings, BVOP : 2
Format settings, QPel : No
Format settings, GMC : No warppoints
Format settings, Matrix : Default (H.263)
Muxing mode : Packed bitstream
Codec ID : XVID
Codec ID/Hint : XviD
Duration : 44mn 43s
Bit rate : 1 331 Kbps
Width : 640 pixels
Height : 480 pixels
Display aspect ratio : 4:3
Frame rate : 25.000 fps
Color space : YUV
Chroma subsampling : 4:2:0
Bit depth : 8 bits
Scan type : Progressive
Compression mode : Lossy
Bits/(Pixel*Frame) : 0.173
Stream size : 426 MiB (91%)
Writing library : XviD 1.2.1 (UTC 2008-12-04)
Audio
ID : 1
Format : MPEG Audio
Format version : Version 1
Format profile : Layer 3
Mode : Joint stereo
Codec ID : 55
Codec ID/Hint : MP3
Duration : 44mn 43s
Bit rate mode : Constant
Bit rate : 128 Kbps
Channel(s) : 2 channels
Sampling rate : 44.1 KHz
Compression mode : Lossy
Stream size : 41.0 MiB (9%)
Alignment : Split accross interleaves
Interleave, duration : 40 ms (1.00 video frame)
Interleave, preload duration : 500 ms.

Скриншоты


Альтернативный хост





Показать сообщения:    

Текущее время: 05-Дек 07:24

Часовой пояс: UTC + 3


Вы не можете начинать темы
Вы не можете отвечать на сообщения
Вы не можете редактировать свои сообщения
Вы не можете удалять свои сообщения
Вы не можете голосовать в опросах
Вы не можете прикреплять файлы к сообщениям
Вы не можете скачивать файлы