Извещение Марии (Борис Луценко) [2007, Республика Беларусь, Драма, DVB] Национальный академический драматический театр им. Максима Горького, Минск


 

[Цитировать]

Извещение Марии
Название театра: Национальный академический драматический театр им. Максима Горького, Минск
Страна: Республика Беларусь
Жанр: Драма
Год выпуска: 2007
Продолжительность: 2-а действия 01:42:50 + 00:58:00
Перевод: Не требуется
Язык: Русский
Режиссёр: народный артист Беларуси Борис Луценко
В ролях:
Анн Веркор – заслуженный артист Российской Федерации Олег Корчиков
Мать – народная артистка Беларуси Белла Масумян
Виолена – Анастасия Шпаковская
Пьер де Краон – Иван Мацкевич
Жак Ури – Сергей Чекерес
Мара – Юлия Полубинская
Глухонемой, Неизвестный – Виктор Гудинович
Звонарь – Богдан Берёзкин
Описание: Глава семьи Анн Веркор отправляется в Иерусалим поклониться Богу. Его младшая дочь Мара не может спокойно смотреть на счастье своей родной сестры, собирающейся замуж за красавца Жака Ури. Но что это? Уж не грезит ли Мара наяву? Виолена целует в губы… прокажённого Пьера де Краона! Какое немыслимое грехопадение накануне свадьбы!.. Правда, Жак не из тех, кто верит россказням и слухам. Однако есть доказательство, которое предоставит ему сама Виолена. Это след проказы на её теле...
Много бед и несчастий ждут героев спектакля «Извещение Марии» на пути к единственно верной истине: «Что стоит мир в сравнении с жизнью? И что стоит жизнь, если её не отдать?» Отдать, приняв всю скорбь мира, боль разгромленной и униженной Родины, и боль всех христиан Земли за Веру, расчленённую надвое.
Для нас, людей, живущих в начале третьего тысячелетия христианской эры, так же болезненны и остры вопросы обретения или утраты веры, поисков духовного пути и внутренних ориентиров, как и для людей того далёкого времени.
Доп. информация:
Автор пьесы: Поль Клодель
Перевод: О.Седаковой
Сценография: Людмила Гончарова
Музыка: Александр Ренанский
Костюмы: Нина Гурло

Благодарность: исходник для данной раздачи, записан с цифрового наземного канала, т.е. DVB-Т,
Запись потока *.ts с наземного цифрового телеканала "Беларусь 3", ремукс в *.mpg программой VideoReDo.
Семпл: http://rusfolder.com/42547200
Качество видео: DVB
Формат видео: MPG
Видео 1: MPEG2 Video 720x576 (4:3) 25.00fps, 2 979Кбит/сек
Видео 2: MPEG2 Video 720x576 (4:3) 25.00fps, 2 979Кбит/сек
Аудио: MPEG Audio 48000Hz stereo 256kbps, 2 канала

MediaInfo 1

GeneralComplete name : D:\Театр\Извещение Марии (2007)\Извещение Марии (2007)\Извещение Марии_01_(2007).mpgFormat : MPEG-PSFile size : 2.37 GiBDuration : 1h 42mnOverall bit rate mode : VariableOverall bit rate : 3 301 Kbps
VideoID : 224 (0xE0)Format : MPEG VideoFormat version : Version 2Format profile : Main@MainFormat settings, BVOP : YesFormat settings, Matrix : CustomFormat settings, GOP : M=3, N=15Format settings, picture struc : FrameDuration : 1h 42mnBit rate mode : VariableBit rate : 2 979 KbpsMaximum bit rate : 9 500 KbpsWidth : 720 pixelsHeight : 576 pixelsDisplay aspect ratio : 4:3Frame rate : 25.000 fpsStandard : PALColor space : YUVChroma subsampling : 4:2:0Bit depth : 8 bitsScan type : InterlacedScan order : Top Field FirstCompression mode : LossyBits/(Pixel*Frame) : 0.287Time code of first frame : 00:00:00:00Time code source : Group of pictures headerGOP, Open/Closed : OpenStream size : 2.14 GiB (90%)GOP, Open/Closed of first fram : Closed
AudioID : 192 (0xC0)Format : MPEG AudioFormat version : Version 1Format profile : Layer 2Duration : 1h 42mnBit rate mode : ConstantBit rate : 256 KbpsChannel(s) : 2 channelsSampling rate : 48.0 KHzCompression mode : LossyStream size : 188 MiB (8%)

MediaInfo 2

GeneralComplete name : D:\Театр\Извещение Марии (2007)\Извещение Марии (2007)\Извещение Марии_02_(2007).mpgFormat : MPEG-PSFile size : 1.34 GiBDuration : 57mn 59sOverall bit rate mode : VariableOverall bit rate : 3 301 Kbps
VideoID : 224 (0xE0)Format : MPEG VideoFormat version : Version 2Format profile : Main@MainFormat settings, BVOP : YesFormat settings, Matrix : CustomFormat settings, GOP : M=3, N=15Format settings, picture struc : FrameDuration : 57mn 59sBit rate mode : VariableBit rate : 2 979 KbpsMaximum bit rate : 9 500 KbpsWidth : 720 pixelsHeight : 576 pixelsDisplay aspect ratio : 4:3Frame rate : 25.000 fpsStandard : PALColor space : YUVChroma subsampling : 4:2:0Bit depth : 8 bitsScan type : InterlacedScan order : Top Field FirstCompression mode : LossyBits/(Pixel*Frame) : 0.287Time code of first frame : 00:00:00:00Time code source : Group of pictures headerGOP, Open/Closed : OpenStream size : 1.21 GiB (90%)GOP, Open/Closed of first fram : Closed
AudioID : 192 (0xC0)Format : MPEG AudioFormat version : Version 1Format profile : Layer 2Duration : 57mn 59sBit rate mode : ConstantBit rate : 256 KbpsChannel(s) : 2 channelsSampling rate : 48.0 KHzCompression mode : LossyDelay relative to video : 8msStream size : 106 MiB (8%)



Показать сообщения:    

Текущее время: 09-Дек 12:46

Часовой пояс: UTC + 3


Вы не можете начинать темы
Вы не можете отвечать на сообщения
Вы не можете редактировать свои сообщения
Вы не можете удалять свои сообщения
Вы не можете голосовать в опросах
Вы не можете прикреплять файлы к сообщениям
Вы не можете скачивать файлы