Ревизор (Юрий Соломин.) [2013, комедия, DVB-AVC] Государственный Академический Малый театр


 

[Цитировать]

Ревизор
Название театра: Государственный Академический Малый театр
Жанр: комедия
Год выпуска: 2013
Продолжительность: 01:46:02 + 01:23:43
Режиссёр: Юрий Соломин.
В ролях: Александр Потапов, Людмила Полякова, Эдуард Марцевич, Борис Невзоров, Александр Клюквин, Виктор Низовой.
Описание: Знаменитая и вечно современная комедия Гоголя — снова на сцене Малого театра. Творческий коллектив спектакля следует замыслу автора, его "духу и букве". "Ревизор" — это яркие характеры, искрометный юмор, беспощадная сатира.
Доп. информация:
Запись потока *.ts со спутника ABS-2, 75° в.д., ремукс в *.mkv программой VideoReDo.
Качество видео: DVB
Формат видео: MKV
Видео: Advanced Video Codec, 720(768)x576 (4:3), 25,000 кадров/сек, 3087 Кбит/сек
Аудио: MPEG Audio, 48,0 КГц, 2 канала, 192 Кбит/сек

MediaInfo

Общее
Уникальный идентификатор : 240827961276788260495417015616494265462 (0xB52DC73890BE8ACC4DEFAD9B1FCA6476)
Полное имя : D:\Torrent\Ревизор\Ревизор 1 (Kultura 56).mkv
Формат : Matroska
Версия формата : Version 2
Размер файла : 2,48 Гбайт
Продолжительность : 1 ч. 46 м.
Общий поток : 3346 Кбит/сек
Программа кодирования : Lavf52.64.2
Библиотека кодирования : Lavf52.64.2
Видео
Идентификатор : 1
Формат : AVC
Формат/Информация : Advanced Video Codec
Профиль формата : High@L3.0
Параметр CABAC формата : Да
Параметр ReFrames формата : 4 кадра
Параметр GOP формата : M=4, N=32
Идентификатор кодека : V_MPEG4/ISO/AVC
Продолжительность : 1 ч. 46 м.
Битрейт : 3087 Кбит/сек
Ширина : 720 пикселей
Высота : 576 пикселей
Соотношение сторон : 4:3
Соотношение сторон в оригинале : 4:3
Режим частоты кадров : Постоянный
Частота кадров : 25,000 кадров/сек
Стандарт вещания : PAL
Цветовое пространство : YUV
Субдискретизация насыщенности : 4:2:0
Битовая глубина : 8 бит
Тип развёртки : MBAFF
Бит/(Пиксели*Кадры) : 0.298
Размер потока : 2,29 Гбайт (92%)
Default : Да
Forced : Нет
Аудио
Идентификатор : 2
Формат : MPEG Audio
Версия формата : Version 1
Профиль формата : Layer 2
Идентификатор кодека : A_MPEG/L2
Идентификатор кодека/Подсказка : MP2
Продолжительность : 1 ч. 46 м.
Вид битрейта : Постоянный
Битрейт : 192 Кбит/сек
Каналы : 2 канала
Частота : 48,0 КГц
Метод сжатия : С потерями
Размер потока : 146 Мбайт (6%)
Язык : English
Default : Да
Forced : Нет
Общее
Уникальный идентификатор : 112541948205523598927849793168381301989 (0x54AACA72301C1FD105C3EFF83DC7D4E5)
Полное имя : D:\Torrent\Ревизор\Ревизор 2 (Kultura 56).mkv
Формат : Matroska
Версия формата : Version 2
Размер файла : 1,96 Гбайт
Продолжительность : 1 ч. 23 м.
Общий поток : 3345 Кбит/сек
Программа кодирования : Lavf52.64.2
Библиотека кодирования : Lavf52.64.2
Видео
Идентификатор : 1
Формат : AVC
Формат/Информация : Advanced Video Codec
Профиль формата : High@L3.0
Параметр CABAC формата : Да
Параметр ReFrames формата : 4 кадра
Параметр GOP формата : M=4, N=32
Идентификатор кодека : V_MPEG4/ISO/AVC
Продолжительность : 1 ч. 23 м.
Битрейт : 3087 Кбит/сек
Ширина : 720 пикселей
Высота : 576 пикселей
Соотношение сторон : 4:3
Соотношение сторон в оригинале : 4:3
Режим частоты кадров : Постоянный
Частота кадров : 25,000 кадров/сек
Стандарт вещания : PAL
Цветовое пространство : YUV
Субдискретизация насыщенности : 4:2:0
Битовая глубина : 8 бит
Тип развёртки : MBAFF
Бит/(Пиксели*Кадры) : 0.298
Размер потока : 1,80 Гбайт (92%)
Default : Да
Forced : Нет
Аудио
Идентификатор : 2
Формат : MPEG Audio
Версия формата : Version 1
Профиль формата : Layer 2
Идентификатор кодека : A_MPEG/L2
Идентификатор кодека/Подсказка : MP2
Продолжительность : 1 ч. 23 м.
Вид битрейта : Постоянный
Битрейт : 192 Кбит/сек
Каналы : 2 канала
Частота : 48,0 КГц
Метод сжатия : С потерями
Размер потока : 115 Мбайт (6%)
Язык : English
Default : Да
Forced : Нет

Скриншот с названием постановки




Показать сообщения:    

Текущее время: 10-Дек 08:00

Часовой пояс: UTC + 3


Вы не можете начинать темы
Вы не можете отвечать на сообщения
Вы не можете редактировать свои сообщения
Вы не можете удалять свои сообщения
Вы не можете голосовать в опросах
Вы не можете прикреплять файлы к сообщениям
Вы не можете скачивать файлы