Бешеные деньги (Александр Белинский) [1968 г., драма, телеспектакль, TVRip]


 

[Цитировать]

Бешеные деньги (2 серии) Год выпуска: 1968.
Жанр: драма, телеспектакль.
Продолжительность: 01:07:35 + 00:50:46 (01:58:22).
Режиссер: Александр Белинский.
Действующие лица и исполнители:
Чебоксарова - народная артистка РСФСР Лидия Штыкан,
Лидия - Нонна Самарина,
Васильков - заслуженный артист РСФСР Всеволод Кузнецов,
Телятев - заслуженный артист РСФСР Сергей Юрский,
Глумов - заслуженный артист РСФСР Игорь Дмитриев,
Кучумов - заслуженный артист РСФСР Николай Карамышев,
Василий - Анатолий Гаричев.
Описание:
Все пьесы Островского удивительно современны. Не только в начале XIX века деньгами расплачивались за чувства.
Деньги губительны и беспощадны в руках нищих духом.
Сюжет пьесы строится на том, что неприступная красавица, предмет обожания столичных кавалеров Лидия Чебоксарова разорена. Но пока об этом никто не знает, она решает принять соответствующие меры и поскорее выйти из нелепого положения, выгодно выйдя замуж. Кто же станет её супругом? Телятев, у которого, вероятно, есть кое-какие сбережения? Нелепый провинциал Савва Васильков, который, судя по слухам, имеет очень большое состояние? А может все же не связывать себя узами брака, ведь рядом есть пожилой женатый Григорий Кучумов, видимо, обладающий несметным богатством? Однако есть еще одно решение - преодолеть в себе стремление к бешеным деньгам и начать жить по сердцу и уму.

Дополнительная информация:
Страна: СССР .
Выпущено: © Ленинградская студия телевидения.
Автор: Александр Николаевич Островский.
Художник: И. Поляков.
Оператор-постановщик: Михаил Филиппов.
Музыкальное оформление: Евгений Шендерович.
Релиз
Рип lesik689.

Качество: TVRip
Формат: AVI
Видео: 640x480 (1.33:1), 25 fps, XviD MPEG-4 ~1894-1899 kbps avg, 0.25 bit/pixel
Аудио: 48 kHz, MPEG Layer 3, 2 ch, ~128.00 kbps avg

Отчет MI

1-я серия
Общее
Полное имя : Beshenye.den'gi.(2.serii.iz.2).1968.XviD.TVRip.fenixclub\Beshenye.den'gi.(1-ya.seriya.iz.2).1968.XviD.TVRip.fenixclub.avi
Format : AVI
Format/Info : Audio Video Interleave
File size : 985 MiB
Duration : 1h 7mn
Overall bit rate : 2 037 Kbps
Writing application : VirtualDubMod 1.5.10.2 (build 2542/release)
Writing library : VirtualDubMod build 2542/release
Video
ID : 0
Format : MPEG-4 Visual
Format profile : Advanced Simple@L5
Format settings, BVOP : 2
Format settings, QPel : No
Format settings, GMC : No warppoints
Format settings, Matrix : Default (MPEG)
Muxing mode : Packed bitstream
Codec ID : XVID
Codec ID/Hint : XviD
Duration : 1h 7mn
Bit rate : 1 899 Kbps
Width : 640 pixels
Height : 480 pixels
Display aspect ratio : 4:3
Frame rate : 25.000 fps
Color space : YUV
Chroma subsampling : 4:2:0
Bit depth : 8 bits
Scan type : Progressive
Compression mode : Lossy
Bits/(Pixel*Frame) : 0.247
Stream size : 918 MiB (93%)
Writing library : XviD 64
Audio
ID : 1
Format : MPEG Audio
Format version : Version 1
Format profile : Layer 3
Mode : Joint stereo
Mode extension : MS Stereo
Codec ID : 55
Codec ID/Hint : MP3
Duration : 1h 7mn
Bit rate mode : Constant
Bit rate : 128 Kbps
Channel(s) : 2 channels
Sampling rate : 48.0 KHz
Compression mode : Lossy
Stream size : 61.9 MiB (6%)
Alignment : Split accross interleaves
Interleave, duration : 40 ms (1.00 video frame)
Interleave, preload duration : 500 ms.
2-я серия
Общее
Полное имя : Beshenye.den'gi.(2.serii.iz.2).1968.XviD.TVRip.fenixclub\Beshenye.den'gi.(2-ya.seriya.iz.2).1968.XviD.TVRip.fenixclub.avi
Format : AVI
Format/Info : Audio Video Interleave
File size : 738 MiB
Duration : 50mn 46s
Overall bit rate : 2 033 Kbps
Writing application : VirtualDubMod 1.5.10.2 (build 2542/release)
Writing library : VirtualDubMod build 2542/release
Video
ID : 0
Format : MPEG-4 Visual
Format profile : Advanced Simple@L5
Format settings, BVOP : 2
Format settings, QPel : No
Format settings, GMC : No warppoints
Format settings, Matrix : Default (MPEG)
Muxing mode : Packed bitstream
Codec ID : XVID
Codec ID/Hint : XviD
Duration : 50mn 46s
Bit rate : 1 895 Kbps
Width : 640 pixels
Height : 480 pixels
Display aspect ratio : 4:3
Frame rate : 25.000 fps
Color space : YUV
Chroma subsampling : 4:2:0
Bit depth : 8 bits
Scan type : Progressive
Compression mode : Lossy
Bits/(Pixel*Frame) : 0.247
Stream size : 688 MiB (93%)
Writing library : XviD 64
Audio
ID : 1
Format : MPEG Audio
Format version : Version 1
Format profile : Layer 3
Mode : Joint stereo
Mode extension : MS Stereo
Codec ID : 55
Codec ID/Hint : MP3
Duration : 50mn 46s
Bit rate mode : Constant
Bit rate : 128 Kbps
Channel(s) : 2 channels
Sampling rate : 48.0 KHz
Compression mode : Lossy
Stream size : 46.5 MiB (6%)
Alignment : Split accross interleaves
Interleave, duration : 40 ms (1.00 video frame)
Interleave, preload duration : 500 ms.

Скриншоты

Альтернативный хост




Показать сообщения:    

Текущее время: 09-Дек 04:57

Часовой пояс: UTC + 3


Вы не можете начинать темы
Вы не можете отвечать на сообщения
Вы не можете редактировать свои сообщения
Вы не можете удалять свои сообщения
Вы не можете голосовать в опросах
Вы не можете прикреплять файлы к сообщениям
Вы не можете скачивать файлы