Привидение из города Ойленберга (Анатолий Слясский) [1987 г., сказка, телеспектакль, TVRip]


 

[Цитировать]

Привидение из города Ойленберга Год выпуска: 1987.
Жанр: сказка, телеспектакль.
Продолжительность: 02:09:08.
Режиссер: Анатолий Слясский.
Действующие лица и исполнители:
Ойленбергское Привидение - народный артист РСФСР Анатолий Равикович,
Мастер Шварцкюнстлер - Александр Эстрин,
Андруш - Олег Айсин,
Юро - Андрей Александров,
Лотар - Андрей Ургант,
Курфюрст - Алексей Розанов,
Шуху - заслуженный артист РСФСР Владимир Мартьянов,
Генерал - заслуженный артист РСФСР Анатолий Пузырёв,
Начальник полиции - Евгений Тиличеев,
Начальник тюрьмы - Александр Семёнов,
Капрал - Сергей Паршин,
Иохим - Сергей Мигицко,
Хольцингер - Сергей Лосев,
Томас - заслуженный артист РСФСР Николай Лавров,
Ландскнехты - Анатолий Насибулин, Алексей Козлов, Виктор Бычков, Аркадий Коваль, Андрей Краско,
Лобош - Ваня Доррер,
Собака Аякс - пудель Чанита.
В эпизодах - артисты ленинградских театров.
Описание:
По мотивам повестей Отфрида Пройслера.
В основе сюжета телеспектакля - необычная история, случившаяся давным-давно в городе Ойленберге, в доме, где жило страшное Привидение...
А вот что случилось в этом доме, вы узнаете, посмотрев спектакль.

Дополнительная информация:
Страна: СССР .
Выпущено: © Ленинградское телевидение.
Автор: Отфрид Пройслер.
Перевод: Юрий Коринец.
Композитор: Игорь Цветков.
Художники: Ольга Воронецкая, Леонид Пережигин.
Ведущие операторы: Борис Волох, Владимир Журавлёв.
Премьера: 3 октября 1987 года.

Релиз
Рип lesik689.

Качество: TVRip
Формат: AVI
Видео: 640x480 (1.33:1), 25 fps, XviD MPEG-4 ~2000 kbps avg, 0.26 bit/pixel
Аудио: 48 kHz, AC3 Dolby Digital, 2/0 (L,R) ch, ~192 kbps

Отчет MI

Общее
Полное имя : Prividenie.iz.goroda.Oylenberga.1987.XviD.TVRip.fenixclub.avi
Format : AVI
Format/Info : Audio Video Interleave
File size : 1.99 GiB
Duration : 2h 9mn
Overall bit rate : 2 203 Kbps
Writing application : VirtualDubMod 1.5.10.2 (build 2542/release)
Writing library : VirtualDubMod build 2542/release
Video
ID : 0
Format : MPEG-4 Visual
Format profile : Advanced Simple@L5
Format settings, BVOP : 2
Format settings, QPel : No
Format settings, GMC : No warppoints
Format settings, Matrix : Default (MPEG)
Muxing mode : Packed bitstream
Codec ID : XVID
Codec ID/Hint : XviD
Duration : 2h 9mn
Bit rate : 2 001 Kbps
Width : 640 pixels
Height : 480 pixels
Display aspect ratio : 5:4
Original display aspect ratio : 4:3
Frame rate : 25.000 fps
Color space : YUV
Chroma subsampling : 4:2:0
Bit depth : 8 bits
Scan type : Progressive
Compression mode : Lossy
Bits/(Pixel*Frame) : 0.261
Stream size : 1.80 GiB (91%)
Writing library : XviD 64
Audio
ID : 1
Format : AC-3
Format/Info : Audio Coding 3
Mode extension : CM (complete main)
Format settings, Endianness : Big
Codec ID : 2000
Duration : 2h 9mn
Bit rate mode : Constant
Bit rate : 192 Kbps
Channel(s) : 2 channels
Channel positions : Front: L R
Sampling rate : 48.0 KHz
Bit depth : 16 bits
Compression mode : Lossy
Stream size : 177 MiB (9%)
Alignment : Aligned on interleaves
Interleave, duration : 40 ms (1.00 video frame)
Interleave, preload duration : 512 ms.

Скриншоты


Альтернативный хост





Показать сообщения:    

Текущее время: 08-Дек 14:52

Часовой пояс: UTC + 3


Вы не можете начинать темы
Вы не можете отвечать на сообщения
Вы не можете редактировать свои сообщения
Вы не можете удалять свои сообщения
Вы не можете голосовать в опросах
Вы не можете прикреплять файлы к сообщениям
Вы не можете скачивать файлы