Бабье царство (Валерий Маслюк) [1987 г., Баллада, TVRip] Национальный драматический театр им. М.Горького (Русский драматический театр), г. Минск


 

[Цитировать]

Бабье царство Название театра: Национальный драматический театр им. М.Горького (Русский драматический театр), г. Минск.
Год выпуска: 1987.
Жанр: Баллада.
Продолжительность: 01:02:57.
Язык: русский.
Режиссер: лауреат Государственной премии БССР Валерий Маслюк.
Действующие лица и исполнители:
Надежда Петровна – заслуженная артистка БССР Ольга Клебанович,
Колька – Андрей Душечкин,
Дуняша – Татьяна Бовкалова,
Анна – заслуженная артистка БССР Людмила Былинская,
Настёха – Галина Доля,
Самойлиха – заслуженная артистка БССР Белла Масумян,
Матвей – народный артист БССР Юрий Сидоров.
О спектакле:
"Запоют птицы. Над старой мельницей, над всем миром, а из-под ветхих ворот появятся двое: Он и Она. Он – Колька, Она – Дуняша. И разве можно будет поверить, что идёт в мире война, если Он Её поцелует. Впервые".
Так начинается спектакль "Бабье царство" по повести Юрия Нагибина. Это взволнованный рассказ о простых, скромных советских женщинах, об их героизме в тяжёлые годы войны.
Одна из основных героинь в спектакле – Надежда Петровна. На фоне всенародного горя пронзительной нотой звучит личная трагедия этой женщины. Фашисты убивают сына – Кольку, приходит "похоронная" на мужа. Но она не сгибается – живёт, борется, помогает людям в горе, отдает им тепло своего сердца. И люди платят ей доверием и любовью. Параллельно перед нами разворачивается трудная судьба других героинь. Одна из самых драматических фигур в спектакле – Настёха. Искалечила её война, но она устояла, вынесла всё, выжила… А вот в мирное время не могла она устоять против зла, несправедливости, человеческой подлости. Чудом спасли её, вынули из петли.
Закончилась война, в некоторые семьи вернулись мужья, отцы. Легче стало, засветило солнышко в "бабьем царстве". Однако кое-кто из мужиков всё ещё живёт военными делами. А ведь они хозяева, им надо браться за работу, засучив рукава.
"Бабье царство" – простые русские бабы, перенёсшие тяжесть испытаний военных лет, они опора и в мирное время.

Дополнительная информация:
Страна: СССР .
Выпущено: © Белтелерадиокомпания.
Автор: Юрий Нагибин.
Сценическая редакция и постановка: лауреат Государственной премии БССР Валерий Маслюк.
Сценография: заслуженный деятель искусств БССР Юрий Тур.
Композитор: Владимир Прохоров.
Музыкальное оформление: Виктор Войтик.
Премьера спектакля состоялась в 1984 году.

О спектакле.
Релиз
Спасибо AND01AND за исходный материал.

Качество видео:...TVRip
Формат:.................AVI
Видео:..688x512 (1.34:1), 25 fps, XviD MPEG-4 ~1803 kbps avg, 0.20 bit/pixel
Аудио:..48 kHz, MPEG Layer 3, 2 ch, ~128.00 kbps avg

Отчет MI

Общее
Полное имя : Bab'e.carstvo_Nacional'nyj.DT.im.Gor'kogo.Minsk.1987.XviD.TVRip.fenixclub.avi
Format : AVI
Format/Info : Audio Video Interleave
File size : 1.37 GiB
Duration : 1h 40mn
Overall bit rate : 1 942 Kbps
Writing application : VirtualDubModRus 1.5.10.2 (build 2542/release)
Writing library : VirtualDub build 32842/release
Video
ID : 0
Format : MPEG-4 Visual
Format profile : Advanced Simple@L5
Format settings, BVOP : 2
Format settings, QPel : No
Format settings, GMC : No warppoints
Format settings, Matrix : Default (H.263)
Muxing mode : Packed bitstream
Codec ID : XVID
Codec ID/Hint : XviD
Duration : 1h 40mn
Bit rate : 1 804 Kbps
Width : 688 pixels
Height : 512 pixels
Display aspect ratio : 4:3
Frame rate : 25.000 fps
Color space : YUV
Chroma subsampling : 4:2:0
Bit depth : 8 bits
Scan type : Progressive
Compression mode : Lossy
Bits/(Pixel*Frame) : 0.205
Stream size : 1.27 GiB (93%)
Writing library : XviD 1.2.1 (UTC 2008-12-04)
Audio
ID : 1
Format : MPEG Audio
Format version : Version 1
Format profile : Layer 3
Mode : Joint stereo
Mode extension : MS Stereo
Codec ID : 55
Codec ID/Hint : MP3
Duration : 1h 40mn
Bit rate mode : Constant
Bit rate : 128 Kbps
Channel(s) : 2 channels
Sampling rate : 48.0 KHz
Compression mode : Lossy
Delay relative to video : 150ms
Stream size : 92.2 MiB (7%)
Alignment : Split accross interleaves
Interleave, duration : 40 ms (1.00 video frame)
Interleave, preload duration : 500 ms
Writing library : LAME3.98

Скриншоты

Альтернативный хост




Показать сообщения:    

Текущее время: 08-Дек 10:53

Часовой пояс: UTC + 3


Вы не можете начинать темы
Вы не можете отвечать на сообщения
Вы не можете редактировать свои сообщения
Вы не можете удалять свои сообщения
Вы не можете голосовать в опросах
Вы не можете прикреплять файлы к сообщениям
Вы не можете скачивать файлы