Цитата (Павел Хомский, Александр Покровский) [1988 г., комедия, SATRip] Московской Государственный академический театр им. Моссовета


 

[Цитировать]

Цитата (2 серии) Название театра: Московской Государственный академический театр им. Моссовета.
Год выпуска: 1988.
Жанр: комедия.
Продолжительность: 00:54:23 + 01:04:54.
Режиссеры: народный артист РСФСР Павел Хомский, Александр Покровский.
Действующие лица и исполнители:
Балтазаров - народный артист СССР Леонид Марков,
Алевтина Васильевна - народная артистка РСФСР Валентина Талызина,
Людмила - заслуженная артистка РСФСР Ирина Муравьева,
Лариса - Нелли Пшенная,
Орлюк - народный артист РСФСР Александр Голобородько,
Молочников - заслуженный артист РСФСР Евгений Стеблов,
Николаев - Андрей Цимбал,
Никодимов - заслуженный артист РСФСР Николай Лебедев,
Никаноров - Виктор Гордеев,
Тишин - заслуженный артист РСФСР Владимир Сулимов,
Бобров - заслуженный артист РСФСР Николай Парфенов,
Коницына - Мария Кнушевицкая,
Данаев - Ян Арлазоров,
Кубов - Леонид Сенченко,
Булкин - Александр Бачуркин,
Живцова - народная артистка РСФСР Людмила Шапошникова,
Домработница - Галина Жданова.
Описание:
По одноименной пьесе в стихах Леонида Зорина.
Начальник одного из учреждений Балтазаров вывесил в своем кабинете плакат с понравившейся ему цитатой. Со временем он забыл, где ее позаимствовал. Начальник более высокого ранга, прочтя злополучную цитату, потребовал выяснить, кто ее автор. Этим воспользовался один из новых служащих, предложивший в обмен за установление автора цитаты выдать за него дочь насмерть перепуганного Балтазарова.

Дополнительная информация:
Страна: СССР .
Выпущено: © Главная редакция литературно-драматических программ ЦТ.
Автор: Леонид Зорин.
Художники: Николай Эпов, Светлана Ставцева.
Музыкальное оформление: Александр Чевский.
Оператор-постановщик: Лев Стрельцин.


О спектакле.

Еще постер

Релиз

Качество видео:...SATRip
Формат:.................AVI
Видео:..688x512 (1.34:1), 25 fps, XviD MPEG-4 ~1609 kbps avg, 0.18 bit/pixel
Аудио:..48 kHz, MPEG Layer 3, 2 ch, ~128.00 kbps avg

Отчет MI

1-я серия
Общее
Полное имя : Citata_Teatr.im.Mossoveta.(2.serii.iz.2).1988.XviD.SATRip.fenixclub.com\Citata.1.avi
Format : AVI
Format/Info : Audio Video Interleave
File size : 680 MiB
Duration : 54mn 22s
Overall bit rate : 1 748 Kbps
Writing application : VirtualDubModRus 1.5.10.2 (build 2542/release)
Writing library : VirtualDub build 32842/release
Video
ID : 0
Format : MPEG-4 Visual
Format profile : Advanced Simple@L5
Format settings, BVOP : 2
Format settings, QPel : No
Format settings, GMC : No warppoints
Format settings, Matrix : Default (H.263)
Muxing mode : Packed bitstream
Codec ID : XVID
Codec ID/Hint : XviD
Duration : 54mn 22s
Bit rate : 1 610 Kbps
Width : 688 pixels
Height : 512 pixels
Display aspect ratio : 4:3
Frame rate : 25.000 fps
Color space : YUV
Chroma subsampling : 4:2:0
Bit depth : 8 bits
Scan type : Progressive
Compression mode : Lossy
Bits/(Pixel*Frame) : 0.183
Stream size : 626 MiB (92%)
Writing library : XviD 1.2.1 (UTC 2008-12-04)
Audio
ID : 1
Format : MPEG Audio
Format version : Version 1
Format profile : Layer 3
Mode : Joint stereo
Mode extension : MS Stereo
Codec ID : 55
Codec ID/Hint : MP3
Duration : 54mn 22s
Bit rate mode : Constant
Bit rate : 128 Kbps
Channel(s) : 2 channels
Sampling rate : 48.0 KHz
Compression mode : Lossy
Stream size : 49.8 MiB (7%)
Alignment : Split accross interleaves
Interleave, duration : 40 ms (1.00 video frame)
Interleave, preload duration : 500 ms.
2-я серия
Общее
Полное имя : Citata_Teatr.im.Mossoveta.(2.serii.iz.2).1988.XviD.SATRip.fenixclub.com\Citata.2.avi
Format : AVI
Format/Info : Audio Video Interleave
File size : 811 MiB
Duration : 1h 4mn
Overall bit rate : 1 747 Kbps
Writing application : VirtualDubModRus 1.5.10.2 (build 2542/release)
Writing library : VirtualDub build 32842/release
Video
ID : 0
Format : MPEG-4 Visual
Format profile : Advanced Simple@L5
Format settings, BVOP : 2
Format settings, QPel : No
Format settings, GMC : No warppoints
Format settings, Matrix : Default (H.263)
Muxing mode : Packed bitstream
Codec ID : XVID
Codec ID/Hint : XviD
Duration : 1h 4mn
Bit rate : 1 610 Kbps
Width : 688 pixels
Height : 512 pixels
Display aspect ratio : 4:3
Frame rate : 25.000 fps
Color space : YUV
Chroma subsampling : 4:2:0
Bit depth : 8 bits
Scan type : Progressive
Compression mode : Lossy
Bits/(Pixel*Frame) : 0.183
Stream size : 747 MiB (92%)
Writing library : XviD 1.2.1 (UTC 2008-12-04)
Audio
ID : 1
Format : MPEG Audio
Format version : Version 1
Format profile : Layer 3
Mode : Joint stereo
Mode extension : MS Stereo
Codec ID : 55
Codec ID/Hint : MP3
Duration : 1h 4mn
Bit rate mode : Constant
Bit rate : 128 Kbps
Channel(s) : 2 channels
Sampling rate : 48.0 KHz
Compression mode : Lossy
Stream size : 59.4 MiB (7%)
Alignment : Split accross interleaves
Interleave, duration : 40 ms (1.00 video frame)
Interleave, preload duration : 500 ms.

Скриншоты


Альтернативный хост





Показать сообщения:    

Текущее время: 10-Дек 23:26

Часовой пояс: UTC + 3


Вы не можете начинать темы
Вы не можете отвечать на сообщения
Вы не можете редактировать свои сообщения
Вы не можете удалять свои сообщения
Вы не можете голосовать в опросах
Вы не можете прикреплять файлы к сообщениям
Вы не можете скачивать файлы