Проделки Скапена (Аскер Аскеров) [2013 г., Азербайджан, комедия, WEB-DLRip] Азербайджанский Государственный театр музыкальной комедии


 

[Цитировать]

Проделки Скапена Название театра: Азербайджанский Государственный театр музыкальной комедии.
Год выпуска: 2013.
Страна: Азербайджан .
Жанр: комедия.
Продолжительность: 01:56:52.
Язык: русский.
Режиссер: заслуженный деятель искусств Азербайджана Аскер Аскеров, заслуженный артист Азербайджана Борис Графкин.
Действующие лица и исполнители:
Аргант - народный артист Азербайджана Сафа Мирзагасанов,
Жеронт - заслуженный артист Азербайджана Борис Графкин,
Октав - Эльвин Алиев,
Леандр - Рауф Бабаев,
Зербинетта - Марина Литвиненко,
Гиацинита - Мехрибан Залыева,
Скапен - Эмиль Гейдаров,
Сильвестр - Алимамед Новрузов,
Нерина - Светлана Булах,
Артисты балета театра.
О спектакле:
Энергичная, искрометная, живая постановка рассчитана на такого же молодого и веселого зрителя. “Плутни Скапена” Мольера – как следует из названия пьесы, комедия не простая, а плутовская. Достаточно беглого взгляда на список действующих лиц, чтобы представить хитросплетения сюжета: два молодых человека и их возлюбленные; у каждого из героев имеются строгий отец и очаровательная сестра (причем одна из сестер поначалу выступает как мнимая цыганка); картину завершают два плута на одну комедию.
В новой постановке на сцену вместе с актерами театра музыкальной комедии выйдет и актер Азербайджанского государственного русского драматического театра им. Самеда Вургуна, народный артист Азербайджана Гусейнсафа Мирзагасанов.
Так как здание Азербайджанского государственного театра музыкальной комедии находится на ремонте, спектакль “Проделки Скапена” представлен зрителям на сцене Азербайджанского государственного русского драматического театра им. Самеда Вургуна.

Дополнительная информация:
Автор: Жан-Батист Мольер.
Режиссер-постановщик: заслуженный деятель искусств Азербайджана Аскер Аскеров.
Режиссер: заслуженный артист Азербайджана Борис Графкин.
Художник-постановщик: Вюсал Рагим.
Музыкальное оформление: Эмин Гасанов.
Балетмейстеры: Закир Агаев, Елена Агаева.
Автор текстов песен: Рауф Бабаев.
Съемка и монтаж: Видади Гасанов.
Релиз
Рип sharky.

Качество видео:...WEB-DLRip
Формат:.................AVI
Видео:..704x400 (1.76:1), 25 fps, XviD build 50 ~1574 kbps avg, 0.22 bit/pixel
Аудио:..48 kHz, AC3 Dolby Digital, 2/0 (L,R) ch, ~192 kbps

Отчет MI

Общее
Полное имя : Prodelki.Skapena_Azerbajdzhanskij.GTMK.2013.XviD.WEB-DLRip.fenixclub.avi
Format : AVI
Format/Info : Audio Video Interleave
File size : 1.45 GiB
Duration : 1h 56mn
Overall bit rate : 1 777 Kbps
Writing application : VirtualDubMod 1.5.10.3 | www.virtualdub-fr.org || (build 2550/release)
Writing library : VirtualDubMod build 2550/release
Video
ID : 0
Format : MPEG-4 Visual
Format profile : Advanced Simple@L5
Format settings, BVOP : 1
Format settings, QPel : No
Format settings, GMC : No warppoints
Format settings, Matrix : Default (H.263)
Codec ID : XVID
Codec ID/Hint : XviD
Duration : 1h 56mn
Bit rate : 1 575 Kbps
Width : 704 pixels
Height : 400 pixels
Display aspect ratio : 16:9
Frame rate : 25.000 fps
Color space : YUV
Chroma subsampling : 4:2:0
Bit depth : 8 bits
Scan type : Progressive
Compression mode : Lossy
Bits/(Pixel*Frame) : 0.224
Stream size : 1.29 GiB (89%)
Writing library : XviD 1.2.1 (UTC 2008-12-04)
Audio
ID : 1
Format : AC-3
Format/Info : Audio Coding 3
Mode extension : CM (complete main)
Format settings, Endianness : Big
Codec ID : 2000
Duration : 1h 56mn
Bit rate mode : Constant
Bit rate : 192 Kbps
Channel(s) : 2 channels
Channel positions : Front: L R
Sampling rate : 48.0 KHz
Bit depth : 16 bits
Compression mode : Lossy
Stream size : 160 MiB (11%)
Alignment : Split accross interleaves
Interleave, duration : 40 ms (1.00 video frame)
Interleave, preload duration : 500 ms.

Скриншоты


Альтернативный хост





Показать сообщения:    

Текущее время: 09-Дек 12:43

Часовой пояс: UTC + 3


Вы не можете начинать темы
Вы не можете отвечать на сообщения
Вы не можете редактировать свои сообщения
Вы не можете удалять свои сообщения
Вы не можете голосовать в опросах
Вы не можете прикреплять файлы к сообщениям
Вы не можете скачивать файлы