Трамвай "Желание" (Николай Коляда) [2013 г., драма, CAMRip] Коляда-театр, г. Екатеринбург


 

[Цитировать]

Трамвай "Желание" Название театра: Коляда-театр, г. Екатеринбург.
Жанр: драма.
Год выпуска: 2013.
Продолжительность: 02:20:54.
Режиссер: Николай Коляда.
Действующие лица и исполнители:
Бланш Дюбуа – заслуженная артистка России Ирина Ермолова,
Стелла, её сестра – Василина Маковцева,
Стэнли Ковальски, муж Стеллы – заслуженный артист России Олег Ягодин,
Митч – Александр Замураев,
Юнис – Любовь Кошелева,
Стив – Максим Тарасов,
Пабло – Константин Итунин,
Проститутка – Вера Цвиткис,
Врач – заслуженный артист России Сергей Фёдоров,
Надзирательница – Тамара Зимина,
Молодой человек, агент по подписке – Антон Бутаков,
В массовых сценах - Алиса Кравцова, Александр Вахов, Александр Сысоев и др.
Описание:
Знаменитая пьеса великого американского драматурга была написана в 1947 году и имела оглушительный успех. До сих пор ее ставят самые известные театры мира, экранизируют известные режиссеры.
Далеко не юная, но всё ещё привлекательная Бланш Дюбуа приезжает в Новый Орлеан к беременной сестре Стелле, живущей с мужем Стэнли в местных трущобах. Бланш сообщает сестре, что разорена, ушла с работы и жить ей негде и не на что. Стэнли, воплощение естественности и грубости, сразу невзлюбил её за пристрастие к алкоголю и неуместное кокетство. Вскоре у Бланш появляется поклонник и призрачная надежда на замужество, но Стэнли расстраивает их помолвку...

Дополнительная информация:
Запись сделана на гастролях театра в Москве в Театральном центре на Страстном в январе 2013 года.
Страна: Россия .
Выпущено: Коляда-театр.
Автор: Теннесси Уильямс.
Постановка и сценография: Николай Коляда.
Премьера спектакля состоялась 3 марта 2009 года.
Видеосъемка: Валерий Кичин.

.... О спектакле.

От автора видеосъемки

"Автор этой видеосъемки просит снисходительно отнестись к ее качеству: некоторые сцены плохо просматривались из-за голов впереди сидевших зрителей, а в некоторых эпизодах камера плохо брала звук, и я снабдил их субтитрами.
Но этот выдающийся спектакль и неповторимую работу великой Ирины Ермоловой нельзя было не сохранить для зрителей хотя бы в таком виде.
Релиз
Рип sharky.

Качество: CAMRip
Формат: AVI
Видео:..704x400 (1.76:1), 25 fps, XviD build 50 ~1273 kbps avg, 0.18 bit/pixel
Аудио:..44.100 kHz, MPEG Layer 3, 2 ch, ~128.00 kbps avg

Отчет Media Info

Общее
Полное имя : Tramvaj.Zhelanie_Kolyada-teatr.2013.XviD.CAMRip.fenixclub.avi
Format : AVI
Format/Info : Audio Video Interleave
File size : 1.45 GiB
Duration : 2h 20mn
Overall bit rate : 1 476 Kbps
Writing application : VirtualDubMod 1.5.10.3 | www.virtualdub-fr.org || (build 2550/release)
Writing library : VirtualDubMod build 2550/release
Video
ID : 0
Format : MPEG-4 Visual
Format profile : Advanced Simple@L5
Format settings, BVOP : 1
Format settings, QPel : No
Format settings, GMC : No warppoints
Format settings, Matrix : Default (H.263)
Codec ID : XVID
Codec ID/Hint : XviD
Duration : 2h 20mn
Bit rate : 1 274 Kbps
Width : 704 pixels
Height : 400 pixels
Display aspect ratio : 16:9
Frame rate : 25.000 fps
Color space : YUV
Chroma subsampling : 4:2:0
Bit depth : 8 bits
Scan type : Progressive
Compression mode : Lossy
Bits/(Pixel*Frame) : 0.181
Stream size : 1.25 GiB (86%)
Writing library : XviD 1.2.1 (UTC 2008-12-04)
Audio
ID : 1
Format : AC-3
Format/Info : Audio Coding 3
Mode extension : CM (complete main)
Format settings, Endianness : Big
Codec ID : 2000
Duration : 2h 20mn
Bit rate mode : Constant
Bit rate : 192 Kbps
Channel(s) : 2 channels
Channel positions : Front: L R
Sampling rate : 48.0 KHz
Bit depth : 16 bits
Compression mode : Lossy
Stream size : 194 MiB (13%)
Alignment : Split accross interleaves
Interleave, duration : 40 ms (1.00 video frame)
Interleave, preload duration : 500 ms.

Скриншоты


Альтернативный хост





Показать сообщения:    

Текущее время: 06-Дек 19:04

Часовой пояс: UTC + 3


Вы не можете начинать темы
Вы не можете отвечать на сообщения
Вы не можете редактировать свои сообщения
Вы не можете удалять свои сообщения
Вы не можете голосовать в опросах
Вы не можете прикреплять файлы к сообщениям
Вы не можете скачивать файлы