Сон смешного человека (Саулюс Варнас) [2011 г., драма, WEB-DLRip] Прокопьевский драматический театр им. Ленинского комсомола


 

[Цитировать]

Сон смешного человека Название театра: Государственное автономное учреждение культуры "Прокопьевский драматический театр им. Ленинского комсомола".
Год выпуска: 2011.
Жанр: драма.
Продолжительность: 02:08:51.
Режиссер: Саулюс Варнас (Литва).
Действующие лица и исполнители:
Смешной человек, Лев Николаевич Мышкин – Вячеслав Гардер,
Великий Инквизитор – заслуженный артист России Владимир Марченко,
Ефимов, Тоцкий – заслуженный артист России Юрий Темирбаев,
Неточка, Настасья Филипповна – Евгения Камбалина,
Матушка – Татьяна Бессчастнова,
Пётр Александрович Рогожин – Сергей Жуйков,
Александра Михайловна – заслуженная артистка России Светлана Попова,
Семён Трофимов – Александр Огнёв,
Наташа – Анна Челозерцева,
Иван – Антон Остапенко,
Алёша – Андрей Жилин,
Шатов – Анатолий Коротицкий,
Варвара Петровна – Любовь Хмельницкая,
Даша – Юлия Филютович,
Ставрогин – Роман Михайлов.
О спектакле:
Смешной одинокий человек решает застрелиться. В раздумье перед револьвером герой засыпает. Во сне он попадает в мир, состоящий из произведений Федора Достоевского. Этот мир внешне точь-в-точь похож на землю, но в нём все идеально: нет злости, зависти, похоти и лжи. Постепенно вымышленный мир на глазах смешного человека превращается в падший, как на Земле. Просыпается герой совсем другим человеком…
В инсценировку вошли произведения Ф. М. Достоевского – «Сон смешного человека», «Неточка Незванова», «Униженные и оскорблённые», «Бесы», «Идиот».
Спектакль создан при поддержке Фонда Станиславского. Это первый опыт международного сотрудничества Прокопьевского драматического театра им. Ленинского комсомола.

Дополнительная информация:
Страна: Россия .
Автор: Федор Михайлович Достоевский.
Режиссёр-постановщик и автор инсценизации: Саулюс Варнас (Литва).
Художник-постановщик: Лаура Лушайтите (Литва).
Режиссёр мультимедиа: Наталья Наумова.
Директор театра: заслуженный работник культуры России Людмила Купцова.

Релиз
Рип sharky.

Качество видео:...WEB-DLRip
Формат:.................AVI
Видео:..704x400 (1.76:1), 25 fps, XviD build 50 ~1471 kbps avg, 0.21 bit/pixel
Аудио:..48 kHz, AC3 Dolby Digital, 2/0 (L,R) ch, ~192 kbps

Отчет MI

Общее
Полное имя : Son.smeshnogo.4eloveka_Prokop'evskij.DT.im.Len.komsomola.2011.XviD.WEB-DLRip.fenixclub.avi
Format : AVI
Format/Info : Audio Video Interleave
File size : 1.51 GiB
Duration : 2h 8mn
Overall bit rate : 1 674 Kbps
Writing application : VirtualDubMod 1.5.10.3 | www.virtualdub-fr.org || (build 2550/release)
Writing library : VirtualDubMod build 2550/release
Video
ID : 0
Format : MPEG-4 Visual
Format profile : Advanced Simple@L5
Format settings, BVOP : 1
Format settings, QPel : No
Format settings, GMC : No warppoints
Format settings, Matrix : Default (H.263)
Codec ID : XVID
Codec ID/Hint : XviD
Duration : 2h 8mn
Bit rate : 1 472 Kbps
Width : 704 pixels
Height : 400 pixels
Display aspect ratio : 16:9
Frame rate : 25.000 fps
Color space : YUV
Chroma subsampling : 4:2:0
Bit depth : 8 bits
Scan type : Progressive
Compression mode : Lossy
Bits/(Pixel*Frame) : 0.209
Stream size : 1.32 GiB (88%)
Writing library : XviD 1.2.1 (UTC 2008-12-04)
Audio
ID : 1
Format : AC-3
Format/Info : Audio Coding 3
Mode extension : CM (complete main)
Format settings, Endianness : Big
Codec ID : 2000
Duration : 2h 8mn
Bit rate mode : Constant
Bit rate : 192 Kbps
Channel(s) : 2 channels
Channel positions : Front: L R
Sampling rate : 48.0 KHz
Bit depth : 16 bits
Compression mode : Lossy
Stream size : 177 MiB (11%)
Alignment : Split accross interleaves
Interleave, duration : 40 ms (1.00 video frame)
Interleave, preload duration : 500 ms.

Скриншоты


Альтернативный хост





Показать сообщения:    

Текущее время: 10-Дек 06:08

Часовой пояс: UTC + 3


Вы не можете начинать темы
Вы не можете отвечать на сообщения
Вы не можете редактировать свои сообщения
Вы не можете удалять свои сообщения
Вы не можете голосовать в опросах
Вы не можете прикреплять файлы к сообщениям
Вы не можете скачивать файлы