Сирано де Бержерак (Павел Хомский) [2006, героическая комедия, DVB-AVC] театр им. Моссовета


 

[Цитировать]

Сирано де Бержерак (2 серии)
29.11.14 торрент обновлен, добавлена 2 серия
Название театра: театр им. Моссовета
Жанр: героическая комедия
Год выпуска: 2006
Продолжительность: 01:35:34 + 00:50:31
Режиссёр: Павел Хомский
В ролях: Сирано де Бержерак - Александр Домогаров,
Роксана - Ольга Кабо,
Кристиан де Невильет - Дмитрий Щербина,
Граф де Гиш - Сергей Виноградов,
Карбон Кастель Жану, капитан гвардейцев - Леонид Евтифьев,
Рагно, кондитнр - Юрий Кузьменков.
Лиза, его жена - Яна Львова,
Линьер, поэт - Виктор Гордеев,
Де Вальвер - Николай Басканчин,
Дуэнья - Мария Кнушевицкая,
Гижи - Дмитрий Козельский,
Брисайль - Юрий Квятковский,
Мушкетер - Михаил Шульц,
Гвардейцы: Павел Савинков, Андрей Смирнов, Евгений Ратьков, Дмитрий Козельский, Михаил Шульц, Юрий Квятковский, Евгений Дремин, Владимир Прокошин,
Барабанщик - Евгений Ратько,
1-й маркиз - Андрей Смирнов,
2-й маркиз - Евгений Ратьков,
Монфлери, актер - Александр Пискарев,
Бельроз, директор театра - Леонид Сенченко,
Капуцин - Александр Пискарев,
Буфетчица - Анна Гарнова,
Вор - Юрий Черкасов,
Мать Маргарита - Светлана Шерстнева,
Сестра Клара - Анна Гарнова,
Сестра марта - Татьяна Храмова,
Пажи и поварята: Коля Мельников, Дарина Фаддева, Святослав Осипов.
Описание: Спектакль театра им. Моссовета. Запись 2006 года. 2 части.
По одноименной комедии Эдмона Ростана (перевод Т. Щепкиной-Куперник и В. Соловьева).
Доп. информация:
Запись потока *.ts со спутника ABS-2, 75° в.д., ремукс в *.mkv программой VideoReDo.
Качество видео: DVB
Формат видео: MKV
Видео: Advanced Video Codec, 720(768)x576 (4:3), 25,000 кадров/сек, 3087 Кбит/сек
Аудио: MPEG Audio, 48,0 КГц, 2 канала, 192 Кбит/сек

MediaInfo

General
Unique ID : 13444566501400658254576188383035367774 (0xA1D544E68DA834094371CAD7AFFA15E)
Complete name : X:\Torrent\Сирано де Бержерак\Сирано де Бержерак 1 (Kultura 56).mkv
Format : Matroska
Format version : Version 2
File size : 2.23 GiB
Duration : 1h 35mn
Overall bit rate : 3 345 Kbps
Writing application : Lavf52.64.2
Writing library : Lavf52.64.2
Video
ID : 1
Format : AVC
Format/Info : Advanced Video Codec
Format profile : High@L3.0
Format settings, CABAC : Yes
Format settings, ReFrames : 4 frames
Codec ID : V_MPEG4/ISO/AVC
Duration : 1h 35mn
Bit rate : 3 087 Kbps
Width : 720 pixels
Height : 576 pixels
Display aspect ratio : 4:3
Original display aspect ratio : 4:3
Frame rate : 25.000 fps
Standard : PAL
Color space : YUV
Chroma subsampling : 4:2:0
Bit depth : 8 bits
Scan type : MBAFF
Bits/(Pixel*Frame) : 0.298
Stream size : 2.06 GiB (92%)
Default : Yes
Forced : No
Audio
ID : 2
Format : MPEG Audio
Format version : Version 1
Format profile : Layer 2
Mode : Joint stereo
Mode extension : Intensity Stereo + MS Stereo
Codec ID : A_MPEG/L2
Codec ID/Hint : MP2
Duration : 1h 35mn
Bit rate mode : Constant
Bit rate : 192 Kbps
Channel(s) : 2 channels
Sampling rate : 48.0 KHz
Compression mode : Lossy
Stream size : 131 MiB (6%)
Language : English
Default : Yes
Forced : No
General
Unique ID : 80988516252478077568144805379034662467 (0x3CEDD223E51DA74F4D2E9240F4ED4643)
Complete name : X:\Torrent\Сирано де Бержерак\Сирано де Бержерак 2 (Kultura 56).mkv
Format : Matroska
Format version : Version 2
File size : 1.18 GiB
Duration : 50mn 31s
Overall bit rate : 3 345 Kbps
Writing application : Lavf52.64.2
Writing library : Lavf52.64.2
Video
ID : 1
Format : AVC
Format/Info : Advanced Video Codec
Format profile : High@L3.0
Format settings, CABAC : Yes
Format settings, ReFrames : 4 frames
Format settings, GOP : M=4, N=32
Codec ID : V_MPEG4/ISO/AVC
Duration : 50mn 31s
Bit rate : 3 087 Kbps
Width : 720 pixels
Height : 576 pixels
Display aspect ratio : 4:3
Original display aspect ratio : 4:3
Frame rate : 25.000 fps
Standard : PAL
Color space : YUV
Chroma subsampling : 4:2:0
Bit depth : 8 bits
Scan type : MBAFF
Bits/(Pixel*Frame) : 0.298
Stream size : 1.09 GiB (92%)
Default : Yes
Forced : No
Audio
ID : 2
Format : MPEG Audio
Format version : Version 1
Format profile : Layer 2
Mode : Joint stereo
Mode extension : Intensity Stereo + MS Stereo
Codec ID : A_MPEG/L2
Codec ID/Hint : MP2
Duration : 50mn 31s
Bit rate mode : Constant
Bit rate : 192 Kbps
Channel(s) : 2 channels
Sampling rate : 48.0 KHz
Compression mode : Lossy
Stream size : 69.4 MiB (6%)
Language : English
Default : Yes
Forced : No

Скриншот с названием постановки




Показать сообщения:    

Текущее время: 03-Дек 12:36

Часовой пояс: UTC + 3


Вы не можете начинать темы
Вы не можете отвечать на сообщения
Вы не можете редактировать свои сообщения
Вы не можете удалять свои сообщения
Вы не можете голосовать в опросах
Вы не можете прикреплять файлы к сообщениям
Вы не можете скачивать файлы