Рейс 1999 или Карма успешности (Виктор Попов) [2010 г., Украина, спектакль-притча, WEB-DLRip] Запорожский муниципальный театр-лаборатория "VIE"


 

[Цитировать]

Рейс 1999 или Карма успешности Название театра: Запорожский муниципальный театр-лаборатория "VIE".
Год выпуска: 2010.
Жанр: спектакль-притча.
Продолжительность: 01:02:57 + 00:47:16 + 00:26:02 (02:16:15).
Язык: русский.
Режиссер: Виктор Попов.
Действующие лица и исполнители:
Бомбила - Сергей Детюк,
Студент - Сергей Собержанский,
Калигула - Николай Махевский,
Стюардесса - Алеся Володькова,
Бизнесс-тренер - Ольга Максимшина,
Девочка-призрак - Полина Солоп.
О спектакле:
По пьесе Леонида Андронова "Монологи о карме успешности".
Режиссер театра VIE Виктор Попов обратился к так называемой «документальной драме» – течение в российской драматургии относительно новое, знаменующее «постгламурное» похмелье. По-видимому, молодые россияне – а адепты «документальной драмы», в общем, скорее молоды, гламура переели, вот и стремятся изобразить действительность в тонах, противоположных розовому. Впадая при этом в другую крайность: потому что наша жизнь, если и не розовая, то уж наверняка и не черная.

Дополнительная информация:
Внимание! В спектакле присутствует ненормативная лексика.
Страна: Украина .
Автор: Леонид Андронов.
Сценография и дизайн: Наталья Петен-Ступакова, Александр Буряк.
Художники по костюмам: Наталья Петен-Ступакова, Ирина Солоп.
Световое, музыкальное и шумовое оформление: Виктор Попов.
Сайт театра.
О театре.
Релиз
Рип sharky.

Качество видео:...WEB-DLRip
Формат:.................AVI
Видео:..704x528 (1.33:1), 25 fps, DivX Codec 4.x ~1389-1392 kbps avg, 0.15 bit/pixel
Аудио:..44.100 kHz, MPEG Layer 3, 2 ch, ~128.00 kbps avg

Отчет MI

1-й акт
Общее
Полное имя : Rejs.1999.ili.Karma.uspeshnosti_ Zaporozhskij.MTL.VIE.(3.akta.iz.3).2010.DivX.WEB-DLRip.fenixclub\Rejs.1999.(1-j.akt.iz.3).2010.DivX.WEB-DLRip.fenixclub.avi
Format : AVI
Format/Info : Audio Video Interleave
File size : 688 MiB
Duration : 1h 2mn
Overall bit rate : 1 528 Kbps
Video
ID : 0
Format : MPEG-4 Visual
Format settings, BVOP : Yes
Format settings, QPel : No
Format settings, GMC : No warppoints
Format settings, Matrix : Default (H.263)
Codec ID : DX50
Codec ID/Hint : DivX 5
Duration : 1h 2mn
Bit rate : 1 391 Kbps
Width : 704 pixels
Height : 528 pixels
Display aspect ratio : 4:3
Frame rate : 25.000 fps
Color space : YUV
Chroma subsampling : 4:2:0
Bit depth : 8 bits
Scan type : Progressive
Compression mode : Lossy
Bits/(Pixel*Frame) : 0.150
Stream size : 626 MiB (91%)
Title : Video
Writing library : DivX 3013
Audio
ID : 1
Format : MPEG Audio
Format version : Version 1
Format profile : Layer 3
Codec ID : 55
Codec ID/Hint : MP3
Duration : 1h 2mn
Bit rate mode : Constant
Bit rate : 128 Kbps
Channel(s) : 2 channels
Sampling rate : 44.1 KHz
Compression mode : Lossy
Stream size : 57.6 MiB (8%)
Alignment : Split accross interleaves
Interleave, duration : 40 ms (1.00 video frame)
Interleave, preload duration : 500 ms
Title : Audio
2-й акт
Общее
Полное имя : Rejs.1999.ili.Karma.uspeshnosti_ Zaporozhskij.MTL.VIE.(3.akta.iz.3).2010.DivX.WEB-DLRip.fenixclub\Rejs.1999.(2-j.akt.iz.3).2010.DivX.WEB-DLRip.fenixclub.avi
Format : AVI
Format/Info : Audio Video Interleave
File size : 516 MiB
Duration : 47mn 15s
Overall bit rate : 1 528 Kbps
Video
ID : 0
Format : MPEG-4 Visual
Format settings, BVOP : Yes
Format settings, QPel : No
Format settings, GMC : No warppoints
Format settings, Matrix : Default (H.263)
Codec ID : DX50
Codec ID/Hint : DivX 5
Duration : 47mn 15s
Bit rate : 1 390 Kbps
Width : 704 pixels
Height : 528 pixels
Display aspect ratio : 4:3
Frame rate : 25.000 fps
Color space : YUV
Chroma subsampling : 4:2:0
Bit depth : 8 bits
Scan type : Progressive
Compression mode : Lossy
Bits/(Pixel*Frame) : 0.150
Stream size : 470 MiB (91%)
Title : Video
Writing library : DivX 3013
Audio
ID : 1
Format : MPEG Audio
Format version : Version 1
Format profile : Layer 3
Codec ID : 55
Codec ID/Hint : MP3
Duration : 47mn 15s
Bit rate mode : Constant
Bit rate : 128 Kbps
Channel(s) : 2 channels
Sampling rate : 44.1 KHz
Compression mode : Lossy
Stream size : 43.3 MiB (8%)
Alignment : Split accross interleaves
Interleave, duration : 40 ms (1.00 video frame)
Interleave, preload duration : 500 ms
Title : Audio
3-й акт
Общее
Полное имя : Rejs.1999.ili.Karma.uspeshnosti_ Zaporozhskij.MTL.VIE.(3.akta.iz.3).2010.DivX.WEB-DLRip.fenixclub\Rejs.1999.(3-j.akt.iz.3).2010.DivX.WEB-DLRip.fenixclub.avi
Format : AVI
Format/Info : Audio Video Interleave
File size : 285 MiB
Duration : 26mn 2s
Overall bit rate : 1 530 Kbps
Video
ID : 0
Format : MPEG-4 Visual
Format settings, BVOP : Yes
Format settings, QPel : No
Format settings, GMC : No warppoints
Format settings, Matrix : Default (H.263)
Codec ID : DX50
Codec ID/Hint : DivX 5
Duration : 26mn 2s
Bit rate : 1 392 Kbps
Width : 704 pixels
Height : 528 pixels
Display aspect ratio : 4:3
Frame rate : 25.000 fps
Color space : YUV
Chroma subsampling : 4:2:0
Bit depth : 8 bits
Scan type : Progressive
Compression mode : Lossy
Bits/(Pixel*Frame) : 0.150
Stream size : 259 MiB (91%)
Title : Video
Writing library : DivX 3013
Audio
ID : 1
Format : MPEG Audio
Format version : Version 1
Format profile : Layer 3
Codec ID : 55
Codec ID/Hint : MP3
Duration : 26mn 2s
Bit rate mode : Constant
Bit rate : 128 Kbps
Channel(s) : 2 channels
Sampling rate : 44.1 KHz
Compression mode : Lossy
Stream size : 23.8 MiB (8%)
Alignment : Split accross interleaves
Interleave, duration : 40 ms (1.00 video frame)
Interleave, preload duration : 500 ms
Title : Audio

Скриншоты


Альтернативный хост





Показать сообщения:    

Текущее время: 10-Дек 17:45

Часовой пояс: UTC + 3


Вы не можете начинать темы
Вы не можете отвечать на сообщения
Вы не можете редактировать свои сообщения
Вы не можете удалять свои сообщения
Вы не можете голосовать в опросах
Вы не можете прикреплять файлы к сообщениям
Вы не можете скачивать файлы