Дон Жуан, или любовь к геометрии (Антон Безъязыков) [2009 г., комедия, WEB-DLRip] Прокопьевский драматический театр им. Ленинского комсомола


 

[Цитировать]

Дон Жуан, или любовь к геометрии Название театра: Государственное автономное учреждение культуры "Прокопьевский драматический театр им. Ленинского комсомола".
Год выпуска: 2009.
Жанр: комедия.
Продолжительность: 01:45:36.
Режиссер: Антон Безъязыков (Санкт-Петербург).
Действующие лица и исполнители:
Дон Жуан - Вячеслав Гардер,
Тенорио, его отец - Леонид Гладков,
Миранда - Ольга Ражева,
Дон Гонсало, командор Севильи - Анатолий Коротицкий,
Донна Эльвира, его жена - заслуженная артистка России Светлана Попова,
Донна Анна, их дочь - Елена Безушко,
Отец Диего - Роман Михайлов,
Дон Родериго, друг Дон Жуана - Георгий Болонев,
Донна Инес - Светлана Пожникова,
Селестина, сводница - Анна Соколова,
Дон Бальтасар Лопес, супруг - Александр Огнев.
О спектакле:
В центре событий – история одинокого сердца, у которого отнято человеческое достоинство. Когда-то, лишившись наследства, Кузовкин стал нахлебником в доме богатых людей. Но душа этого приживала ещё жива и в момент крайнего унижения заявляет о себе, расплачиваясь за бунт своей жгучей тайной. Теперь у него отнимают и тайну. А что же взамен? И возможно ли человеку сегодня, как во времена Тургенева, отстоять своё попранное достоинство, свою личность? У кого искать сострадания? И какую цену за него необходимо заплатить?
Дополнительная информация:
Страна: Россия .
Выпущено: ТРК "27 ПЛЮС".
Автор: Макс Фриш.
Художник-постановщик: Александр Мохов (Санкт-Петербург).
Художник по свету: Валерий Орлов (Новосибирск).
Хореограф: Наталья Семилетко.
Постановка боёв: Анатолий Иванов.
Директор театра: заслуженный работник культуры России Людмила Купцова.

Релиз
Рип sharky.

Качество видео:...WEB-DLRip
Формат:.................AVI
Видео:..704x528 (1.33:1), 25 fps, XviD build 50 ~1763 kbps avg, 0.19 bit/pixel
Аудио:..48 kHz, AC3 Dolby Digital, 2/0 (L,R) ch, ~192 kbps

Отчет MI

Общее
Полное имя : Don.Juan.ili.lyubov'.k.geometrii_Prokop'evskij.DT.im.Len.komsomola.2009.XviD.WEB-DLRip.fenixclub.avi
Format : AVI
Format/Info : Audio Video Interleave
File size : 1.45 GiB
Duration : 1h 45mn
Overall bit rate : 1 966 Kbps
Writing application : VirtualDubMod 1.5.10.2 (build 2542/release)
Writing library : VirtualDubMod build 2542/release
Video
ID : 0
Format : MPEG-4 Visual
Format profile : Advanced Simple@L5
Format settings, BVOP : 1
Format settings, QPel : No
Format settings, GMC : No warppoints
Format settings, Matrix : Default (H.263)
Codec ID : XVID
Codec ID/Hint : XviD
Duration : 1h 45mn
Bit rate : 1 764 Kbps
Width : 704 pixels
Height : 528 pixels
Display aspect ratio : 4:3
Frame rate : 25.000 fps
Color space : YUV
Chroma subsampling : 4:2:0
Bit depth : 8 bits
Scan type : Progressive
Compression mode : Lossy
Bits/(Pixel*Frame) : 0.190
Stream size : 1.30 GiB (90%)
Writing library : XviD 1.2.1 (UTC 2008-12-04)
Audio
ID : 1
Format : AC-3
Format/Info : Audio Coding 3
Mode extension : CM (complete main)
Format settings, Endianness : Big
Codec ID : 2000
Duration : 1h 45mn
Bit rate mode : Constant
Bit rate : 192 Kbps
Channel(s) : 2 channels
Channel positions : Front: L R
Sampling rate : 48.0 KHz
Bit depth : 16 bits
Compression mode : Lossy
Stream size : 145 MiB (10%)
Alignment : Split accross interleaves
Interleave, duration : 40 ms (1.00 video frame)
Interleave, preload duration : 500 ms.

Скриншоты


Альтернативный хост





Показать сообщения:    

Текущее время: 09-Дек 16:36

Часовой пояс: UTC + 3


Вы не можете начинать темы
Вы не можете отвечать на сообщения
Вы не можете редактировать свои сообщения
Вы не можете удалять свои сообщения
Вы не можете голосовать в опросах
Вы не можете прикреплять файлы к сообщениям
Вы не можете скачивать файлы