Нахлебник (Игнатий Кириллов) [2012 г., семейная драма, WEB-DLRip] Новокузнецкий драматический театр


 

[Цитировать]

Нахлебник Название театра: Новокузнецкий драматический театр.
Год выпуска: 2012.
Жанр: семейная драма.
Продолжительность: 01:39:54.
Режиссер: Игнатий Кириллов (Санкт-Петербург).
Действующие лица и исполнители:
Кузовкин - заслуженный артист России Вячеслав Туев,
Тропачев - Андрей Грачев,
Ольга Елецкая - Екатерина Санникова, Вера Кораблина,
Елецкий - Евгений Котин,
Карпачов - Евгений Лапшин,
и др.
О спектакле:
В центре событий – история одинокого сердца, у которого отнято человеческое достоинство. Когда-то, лишившись наследства, Кузовкин стал нахлебником в доме богатых людей. Но душа этого приживала ещё жива и в момент крайнего унижения заявляет о себе, расплачиваясь за бунт своей жгучей тайной. Теперь у него отнимают и тайну. А что же взамен? И возможно ли человеку сегодня, как во времена Тургенева, отстоять своё попранное достоинство, свою личность? У кого искать сострадания? И какую цену за него необходимо заплатить?
Дополнительная информация:
Страна: Россия .
Автор: Иван Сергеевич Тургенев.
Художник: Ольга Горячева (Санкт-Петербург).

О спектакле.
Релиз
Рип sharky.

Качество видео:...WEB-DLRip
Формат:.................AVI
Видео:..704x400 (1.76:1), 25 fps, DivX Codec 4.x ~1426 kbps avg, 0.20 bit/pixel
Аудио:..48 kHz, MPEG Layer 3, 2 ch, ~128.00 kbps avg

Отчет MI

Общее
Полное имя : Nahlebnik_Novokuzneckij.DT.2012.DivX.WEB-DLRip.fenixclub.avi
Format : AVI
Format/Info : Audio Video Interleave
File size : 1.09 GiB
Duration : 1h 39mn
Overall bit rate : 1 564 Kbps
Video
ID : 0
Format : MPEG-4 Visual
Format settings, BVOP : 1
Format settings, QPel : No
Format settings, GMC : No warppoints
Format settings, Matrix : Default (H.263)
Muxing mode : Packed bitstream
Codec ID : DX50
Codec ID/Hint : DivX 5
Duration : 1h 39mn
Bit rate : 1 426 Kbps
Width : 704 pixels
Height : 400 pixels
Display aspect ratio : 16:9
Frame rate : 25.000 fps
Color space : YUV
Chroma subsampling : 4:2:0
Bit depth : 8 bits
Scan type : Progressive
Compression mode : Lossy
Bits/(Pixel*Frame) : 0.203
Stream size : 1 019 MiB (91%)
Title : Video
Writing library : DivX 3013
Audio
ID : 1
Format : MPEG Audio
Format version : Version 1
Format profile : Layer 3
Codec ID : 55
Codec ID/Hint : MP3
Duration : 1h 39mn
Bit rate mode : Constant
Bit rate : 128 Kbps
Channel(s) : 2 channels
Sampling rate : 48.0 KHz
Compression mode : Lossy
Stream size : 91.5 MiB (8%)
Alignment : Split accross interleaves
Interleave, duration : 40 ms (1.00 video frame)
Interleave, preload duration : 500 ms
Title : Audio

Скриншоты


Альтернативный хост





Показать сообщения:    

Текущее время: 08-Дек 12:56

Часовой пояс: UTC + 3


Вы не можете начинать темы
Вы не можете отвечать на сообщения
Вы не можете редактировать свои сообщения
Вы не можете удалять свои сообщения
Вы не можете голосовать в опросах
Вы не можете прикреплять файлы к сообщениям
Вы не можете скачивать файлы