Царь Пётр и Алексей (Владимир Бейлис) [1999, Россия, драма, DVB-AVC] Малый театр


 

[Цитировать]

Царь Пётр и Алексей (2 серии)
Название театра: Государственный академический Малый театр
Страна: Россия
Жанр: драма
Год выпуска: 1999
Продолжительность: 01:15:26 + 01:22:24
Режиссёр: Владимир Бейлис
В ролях: Виктор Коршунов, Татьяна Лебедева, Василий Бочкарёв, Лилия Юдина, Алефтина Евдокимова, Вячеслав Езепов, Светлана Аманова, Александр Клюквин, Евгения Дмитриева, Егор Баринов, Антон Хомятов, Александр Белый, Владимир Сафронов, Александр Потапов, Кирилл Дёмин, Людмила Суворкина, Клавдия Моисеева, Пётр Складчиков, Георгий Оболенский, Алексей Анохин, Галина Микшун, Николай Верещенко, Олег Мартьянов, Владимир Дубровский
Описание: По пьесе Фридриха Горенштейна.
И ненавидят, и любят друг друга царственные отец и сын. У каждого из них своя правда, за каждым — Россия. Где кончается конфликт государственный и начинается противостояние двух страдающих людей?
Доп. информация:
Запись потока *.ts со спутника ABS-2, 75° в.д., ремукс в *.mkv программой VideoReDo.
Качество видео: DVB
Формат видео: MKV
Видео: Advanced Video Codec, 720(768)x576 (4:3), 25,000 кадров/сек, 3087 Кбит/сек
Аудио: MPEG Audio, 48,0 КГц, 2 канала, 192 Кбит/сек

MediaInfo

General
Unique ID : 76374309719408587173454036894910991071 (0x397528319D370CE318DA2727838B4ADF)
Complete name : X:\Torrent\Царь Пётр и Алексей\Царь Пётр и Алексей 1 (Kultura 56).mkv
Format : Matroska
Format version : Version 2
File size : 1.76 GiB
Duration : 1h 15mn
Overall bit rate : 3 346 Kbps
Writing application : Lavf52.64.2
Writing library : Lavf52.64.2
Video
ID : 1
Format : AVC
Format/Info : Advanced Video Codec
Format profile : High@L3.0
Format settings, CABAC : Yes
Format settings, ReFrames : 4 frames
Codec ID : V_MPEG4/ISO/AVC
Duration : 1h 15mn
Bit rate : 3 088 Kbps
Width : 720 pixels
Height : 576 pixels
Display aspect ratio : 4:3
Original display aspect ratio : 4:3
Frame rate : 25.000 fps
Standard : PAL
Color space : YUV
Chroma subsampling : 4:2:0
Bit depth : 8 bits
Scan type : MBAFF
Bits/(Pixel*Frame) : 0.298
Stream size : 1.63 GiB (92%)
Default : Yes
Forced : No
Audio
ID : 2
Format : MPEG Audio
Format version : Version 1
Format profile : Layer 2
Mode : Joint stereo
Mode extension : Intensity Stereo + MS Stereo
Codec ID : A_MPEG/L2
Codec ID/Hint : MP2
Duration : 1h 15mn
Bit rate mode : Constant
Bit rate : 192 Kbps
Channel(s) : 2 channels
Sampling rate : 48.0 KHz
Compression mode : Lossy
Stream size : 104 MiB (6%)
Language : English
Default : Yes
Forced : No
General
Unique ID : 136929080850946195774106924290374329218 (0x670394EABD10B9E88E60E94D47D76382)
Complete name : X:\Torrent\Царь Пётр и Алексей\Царь Пётр и Алексей 2 (Kultura 56).mkv
Format : Matroska
Format version : Version 2
File size : 1.93 GiB
Duration : 1h 22mn
Overall bit rate : 3 346 Kbps
Writing application : Lavf52.64.2
Writing library : Lavf52.64.2
Video
ID : 1
Format : AVC
Format/Info : Advanced Video Codec
Format profile : High@L3.0
Format settings, CABAC : Yes
Format settings, ReFrames : 4 frames
Codec ID : V_MPEG4/ISO/AVC
Duration : 1h 22mn
Bit rate : 3 088 Kbps
Width : 720 pixels
Height : 576 pixels
Display aspect ratio : 4:3
Original display aspect ratio : 4:3
Frame rate : 25.000 fps
Standard : PAL
Color space : YUV
Chroma subsampling : 4:2:0
Bit depth : 8 bits
Scan type : MBAFF
Bits/(Pixel*Frame) : 0.298
Stream size : 1.78 GiB (92%)
Default : Yes
Forced : No
Audio
ID : 2
Format : MPEG Audio
Format version : Version 1
Format profile : Layer 2
Mode : Joint stereo
Mode extension : Intensity Stereo + MS Stereo
Codec ID : A_MPEG/L2
Codec ID/Hint : MP2
Duration : 1h 22mn
Bit rate mode : Constant
Bit rate : 192 Kbps
Channel(s) : 2 channels
Sampling rate : 48.0 KHz
Compression mode : Lossy
Stream size : 113 MiB (6%)
Language : English
Default : Yes
Forced : No

Скриншот с названием постановки




Показать сообщения:    

Текущее время: 03-Дек 20:46

Часовой пояс: UTC + 3


Вы не можете начинать темы
Вы не можете отвечать на сообщения
Вы не можете редактировать свои сообщения
Вы не можете удалять свои сообщения
Вы не можете голосовать в опросах
Вы не можете прикреплять файлы к сообщениям
Вы не можете скачивать файлы