Птицы нашей молодости (Владимир Зайцев) [2010 г., мелодрама, TVRip] Смоленский театр юного зрителя


 

[Цитировать]

Птицы нашей молодости Название театра: Смоленский театр юного зрителя.
Год выпуска: 2010.
Жанр: мелодрама.
Продолжительность: 01:50:56.
Режиссер: Владимир Зайцев.
В ролях: артисты театра.
О спектакле:
По пьесе Иона Друцэ.
О молдавской крестьянке Руце. Человек она одинокий и живет прежде всего любовью к своей земле, творит добро, помогает каждому, кто в ее помощи нуждается. В молодости брат избил ее железной цепью в ходе спора о клочке земли, отбил у нее легкие. А она много лет спустя спасла его сыновей.
Во всей деревне только ее дом отапливался кизяком, хотя это вызывает недовольство со стороны представителей власти. Но она верит, что именно на кизячный дым прилетают аисты, а без этих птиц, символизирующих продолжение жизни, нельзя оставаться на селе.

Дополнительная информация:
Страна: Россия .
Автор: Ион Друцэ.
Релиз
Рип sharky.

Качество видео:...TVRip
Формат:.................AVI
Видео:..704x400 (1.76:1), 25 fps, XviD build 50 ~1270 kbps avg, 0.18 bit/pixel
Аудио:..48 kHz, AC3 Dolby Digital, 2/0 (L,R) ch, ~192 kbps

Отчет Media Info

General
Complete name : Pticy.nashej.molodosti_Smolenskij.TYUZ.2010.XviD.WEB-DLRip.fenixclub.avi
Формат : AVI
Формат/Информация : Audio Video Interleave
Размер файла : 1,14 Гбайт
Продолжительность : 1 ч. 50 м.
Общий поток : 1472 Кбит/сек
Библиотека кодирования : Boilsoft Joiner build 2411/release
Видео
Идентификатор : 0
Формат : MPEG-4 Visual
Профиль формата : Advanced Simple@L5
Параметр BVOP формата : 2
Параметр QPel формата : Нет
Параметр GMC формата : Без точки перехода
Параметр матрицы формата : Default (H.263)
Режим смешивания : Сжатый битовый поток
Идентификатор кодека : XVID
Идентификатор кодека/Подсказка : XviD
Продолжительность : 1 ч. 50 м.
Битрейт : 1271 Кбит/сек
Ширина : 704 пикселя
Высота : 400 пикселей
Соотношение сторон : 16:9
Частота кадров : 25,000 кадров/сек
Цветовое пространство : YUV
Субдискретизация насыщенности : 4:2:0
Битовая глубина : 8 бит
Тип развёртки : Прогрессивная
Метод сжатия : С потерями
Бит/(Пиксели*Кадры) : 0.181
Размер потока : 1008 Мбайт (86%)
Библиотека кодирования : XviD 1.2.1 (UTC 2008-12-04)
Аудио
Идентификатор : 1
Формат : AC-3
Формат/Информация : Audio Coding 3
Расширение режима : CM (complete main)
Параметр Endianness формата : Big
Идентификатор кодека : 2000
Продолжительность : 1 ч. 50 м.
Вид битрейта : Постоянный
Битрейт : 192 Кбит/сек
Каналы : 2 канала
Расположение каналов : Front: L R
Частота : 48,0 КГц
Битовая глубина : 16 бит
Метод сжатия : С потерями
Размер потока : 152 Мбайт (13%)
Выравнивание : Разделение по промежуткам
Продолжительность промежутка : 40 мс. (1,00 видеокадр)
Время предзагрузки промежутка : 500 мс.

Скриншоты


Альтернативный хост





Показать сообщения:    

Текущее время: 03-Дек 22:45

Часовой пояс: UTC + 3


Вы не можете начинать темы
Вы не можете отвечать на сообщения
Вы не можете редактировать свои сообщения
Вы не можете удалять свои сообщения
Вы не можете голосовать в опросах
Вы не можете прикреплять файлы к сообщениям
Вы не можете скачивать файлы