Отцы и дети (Евгений Симонов, Алина Казьмина) [1974 г., драма, SATRip] Государственный академический Малый театр


 

[Цитировать]

Отцы и дети Название театра: Государственный академический Малый театр.
Год выпуска: 1974.
Жанр: драма.
Продолжительность: 02:45:32.
Режиссеры: народный артист РСФСР Евгений Симонов, Алина Казьмина.
Действующие лица и исполнители:
Базаров Евгений Васильевич - народный артист РСФСР Виктор Коршунов,
Кирсанов Аркадий Николаевич - Юрий Васильев,
Кирсанов Николай Петрович - народный артист СССР Николай Анненков,
Кирсанов Павел Петрович - народный артист РСФСР Евгений Велихов,
Фенечка - Надежда Корункова,
Одинцова Анна Сергеевна - народная артистка РСФСР Руфина Нифонтова,
Одинцова Катерина Сергеевна - Людмила Пирогова,
Прокофьич - заслуженный артист РСФСР Андрей Литвинов,
Дворецкий - Иван Верейский.
Описание:
Спектакль по одноименному роману Ивана Сергеевича Тургенева.
Проблема "отцов и детей" - проблема вечная. Конфликт неизбежен всякий раз, когда сталкиваются интересы двух поколений. Ровесники Аркадий Кирсанов и Евгений Базаров — абсолютно разные по мировоззрению люди. В то время как первый более склонен опираться на мнение старшего поколения, второй совершенно отрицает его.

Дополнительная информация:
Страна: Россия .
Автор: Иван Сергеевич Тургенев
Режиссер-постановщик спектакля: народный артист РСФСР Евгений Симонов.
Режиссер-постановщик телеверсии: Алина Казьмина.


Релиз

Качество: SATRip
Формат: AVI
Видео: 704x528 (1.33:1), 25 fps, XviD MPEG-4 ~1122 kbps avg, 0.12 bit/pixel
Аудио: 48 kHz, MPEG Layer 3, 2 ch, ~128.00 kbps avg

Отчет Media Info

General
Complete name : Otcy.i.deti_Malyj.teatr.1974.XviD.SATRip.fenixclub.avi
Format : AVI
Format/Info : Audio Video Interleave
File size : 1.46 GiB
Duration : 2h 45mn
Overall bit rate : 1 261 Kbps
Writing application : VirtualDubModRus 1.5.10.2 (build 2542/release)
Writing library : VirtualDub build 32842/release
Video
ID : 0
Format : MPEG-4 Visual
Format profile : Advanced Simple@L5
Format settings, BVOP : 2
Format settings, QPel : No
Format settings, GMC : No warppoints
Format settings, Matrix : Default (H.263)
Muxing mode : Packed bitstream
Codec ID : XVID
Codec ID/Hint : XviD
Duration : 2h 45mn
Bit rate : 1 123 Kbps
Width : 704 pixels
Height : 528 pixels
Display aspect ratio : 4:3
Frame rate : 25.000 fps
Color space : YUV
Chroma subsampling : 4:2:0
Bit depth : 8 bits
Scan type : Progressive
Compression mode : Lossy
Bits/(Pixel*Frame) : 0.121
Stream size : 1.30 GiB (89%)
Writing library : XviD 1.2.1 (UTC 2008-12-04)
Audio
ID : 1
Format : MPEG Audio
Format version : Version 1
Format profile : Layer 3
Mode : Joint stereo
Mode extension : MS Stereo
Codec ID : 55
Codec ID/Hint : MP3
Duration : 2h 45mn
Bit rate mode : Constant
Bit rate : 128 Kbps
Channel(s) : 2 channels
Sampling rate : 48.0 KHz
Compression mode : Lossy
Stream size : 152 MiB (10%)
Alignment : Split accross interleaves
Interleave, duration : 40 ms (1.00 video frame)
Interleave, preload duration : 500 ms.

Скриншоты


Альтернативный хост





Показать сообщения:    

Текущее время: 04-Дек 02:50

Часовой пояс: UTC + 3


Вы не можете начинать темы
Вы не можете отвечать на сообщения
Вы не можете редактировать свои сообщения
Вы не можете удалять свои сообщения
Вы не можете голосовать в опросах
Вы не можете прикреплять файлы к сообщениям
Вы не можете скачивать файлы